<?xml version="1.0" standalone="no"?>
<!DOCTYPE svg PUBLIC "-//W3C//DTD SVG 1.1//EN" "http://www.w3.org/Graphics/SVG/1.1/DTD/svg11.dtd" >
<svg xmlns="http://www.w3.org/2000/svg">
<metadata>Generated by IcoMoon</metadata>
<defs>
<font id="icomoon-pixeden-stroke-32x32" horiz-adv-x="1024">
<font-face units-per-em="1024" ascent="960" descent="-64" />
<missing-glyph horiz-adv-x="1024" />
<glyph unicode="&#x20;" horiz-adv-x="512" d="" />
<glyph unicode="&#xe900;" glyph-name="add-user" horiz-adv-x="864" d="M599.136 262.784c-36.8 15.36-124.288 45.536-178.080 61.408-4.576 1.44-5.312 1.664-5.312 20.768 0 15.776 6.496 31.648 12.832 45.088 6.848 14.592 14.976 39.168 17.888 61.184 8.16 9.472 19.264 28.16 26.432 63.776 6.272 31.392 3.328 42.816-0.832 53.536-0.416 1.12-0.896 2.24-1.216 3.36-1.568 7.36 0.576 45.6 5.952 75.264 3.712 20.352-0.96 63.648-28.992 99.456-17.696 22.624-51.552 50.432-113.408 54.272l-33.92-0.032c-60.8-3.84-94.72-31.616-112.416-54.24-28.032-35.808-32.672-79.104-28.992-99.456 5.408-29.696 7.552-67.936 5.984-75.136-0.32-1.248-0.8-2.368-1.248-3.52-4.128-10.72-7.072-22.144-0.8-53.536 7.104-35.616 18.24-54.304 26.432-63.776 2.88-22.016 11.008-46.592 17.888-61.184 5.024-10.688 7.36-25.216 7.36-45.792 0-19.104-0.736-19.328-5.024-20.672-55.616-16.416-144.16-48.416-177.184-62.88-26.176-11.232-32.544-31.36-32.544-49.536s0-72.032 0-83.936c0-11.872 7.040-32.192 32.544-32.192 19.616 0 176.576 0 247.872 0 21.376 0 35.136 0 35.136 0h6.144c0 0 13.984 0 35.68 0 71.584 0 228.32 0 247.904 0 25.472 0 32.544 20.288 32.544 32.192s0 65.76 0 83.936-12.544 40.384-38.688 51.616zM604.032 128.64h-570.464v82.528c0 10.176 2.944 14.72 12.416 18.784 31.808 13.92 119.712 45.632 173.888 61.632 28.448 9.024 28.448 34.24 28.448 52.672 0 25.632-3.392 44.704-10.592 60.096-5.504 11.712-12.544 32.704-14.976 51.232l-1.312 9.984-6.592 7.616c-3.616 4.16-12.672 17.216-18.88 48.416-4.896 24.288-2.72 29.92-0.992 34.432 0.992 2.432 1.856 4.864 2.592 7.584l0.32 1.408c3.36 15.84-1.184 62.784-5.792 88.16-2.144 11.68 0.544 44.832 22.4 72.736 13.376 17.088 39.328 38.080 87.104 41.376l31.744 0.032c39.008-2.656 68.64-16.576 88.064-41.408 21.824-27.904 24.512-61.088 22.4-72.8-4.736-26.048-9.184-72.224-5.76-88.256l0.256-1.248 0.352-1.216c0.512-1.728 1.152-3.456 1.792-5.152l0.288-0.832 0.032-0.064c1.888-4.896 4.064-10.432-0.768-34.784-6.272-31.168-15.328-44.288-18.944-48.48l-6.528-7.584-1.344-9.92c-2.432-18.496-9.472-39.584-14.976-51.296-7.904-16.8-16-37.024-16-59.392 0-18.464 0-43.744 29.376-52.96 52.512-15.52 139.040-45.312 174.336-60.064 13.376-5.728 18.368-15.776 18.368-20.768l-0.192-82.528zM738.496 497.888v133.92h-33.568v-133.92h-133.952v-33.568h133.952v-133.92h33.568v133.92h133.92v33.568z" />
<glyph unicode="&#xe901;" glyph-name="airplay" d="M921.44 806.272h-818.88v-511.808h277.824l-175.456-204.736h614.144l-175.488 204.736h277.856v511.808zM279.104 123.872l232.864 271.712 232.896-271.712h-465.792zM887.328 328.576h-272.992l-102.368 119.424-102.368-119.424h-272.928v443.552h750.624v-443.552z" />
<glyph unicode="&#xe902;" glyph-name="alarm" d="M511.744 772.096c-207.328 0-375.328-168.032-375.328-375.328 0-94.048 34.688-180 91.904-245.856l-87.808-107.616 26.432-21.568 85.088 104.256c67.424-64.672 158.88-104.48 259.712-104.48 101.056 0 192.736 40.032 260.224 104.992l85.024-104.896 26.528 21.504-87.872 108.384c56.896 65.792 91.424 151.52 91.424 245.312 0 207.296-168.064 375.328-375.328 375.328zM511.744 55.616c-188.16 0-341.184 153.024-341.184 341.152 0 188.16 153.056 341.184 341.184 341.184s341.216-153.056 341.216-341.184c0-188.128-153.056-341.152-341.184-341.152zM357.472 874.496h-101.376c-94.24 0-170.592-76.384-170.592-170.592v-102.656h48.512l223.456 224.704v48.544zM323.328 840l-203.712-204.64v68.544c0 75.232 61.216 136.48 136.48 136.48h67.232v-0.352zM767.904 874.496h-101.44v-48.544l223.488-224.704h48.544v102.656c0 94.24-76.416 170.592-170.592 170.592zM904.384 635.36h-0.224l-203.552 204.64v0.352h67.296c75.264 0 136.48-61.248 136.48-136.48v-68.544zM494.944 396.832h-188.096v-34.112h222.208v307.072h-34.112z" />
<glyph unicode="&#xe903;" glyph-name="album" horiz-adv-x="928" d="M0 857.6v-819.2h921.6v819.2h-921.6zM34.144 823.456h85.344v-750.944h-85.344v750.944zM887.456 72.544h-733.856v750.944h733.856v-750.944zM529.056 123.744c179.2 0 324.256 145.056 324.256 324.256s-145.056 324.256-324.256 324.256c-179.2 0-324.256-145.056-324.256-324.256s145.056-324.256 324.256-324.256zM529.056 738.144c160.416 0 290.144-129.696 290.144-290.144s-129.696-290.144-290.144-290.144c-160.416 0-290.144 129.696-290.144 290.144s129.696 290.144 290.144 290.144zM529.056 345.6c56.32 0 102.4 46.080 102.4 102.4s-46.080 102.4-102.4 102.4c-56.32 0-102.4-46.080-102.4-102.4s46.080-102.4 102.4-102.4zM529.056 516.256c37.536 0 68.256-30.72 68.256-68.256s-30.72-68.256-68.256-68.256-68.256 30.72-68.256 68.256c0 37.536 30.72 68.256 68.256 68.256zM546.144 448c0-9.44-7.648-17.056-17.056-17.056s-17.056 7.648-17.056 17.056c0 9.44 7.648 17.056 17.056 17.056s17.056-7.648 17.056-17.056z" />
<glyph unicode="&#xe904;" glyph-name="albums" d="M51.392 720.96v-682.4h921.248v682.4h-921.248zM938.496 72.672h-852.992v614.144h852.992v-614.144zM119.616 789.184h784.768v-34.112h-784.768v34.112zM187.872 857.44h648.288v-34.112h-648.288v34.112z" />
<glyph unicode="&#xe905;" glyph-name="anchor" d="M960.768 175.136l-69.472 141.12-150.656-61.472 12.896-31.584 100.832 41.12c-46.432-135.808-171.904-235.040-321.536-242.112v614.656c67.296 8.416 119.424 65.696 119.424 135.296 0 75.36-61.12 136.448-136.48 136.448s-136.448-61.088-136.448-136.448c0-69.6 52.128-126.912 119.424-135.296v-614.656c-148.32 7.040-272.928 104.544-320.32 238.56l92.096-37.568 12.896 31.584-150.656 61.472-69.504-141.12 30.624-15.072 48.832 99.168c51.008-157.536 198.816-271.872 373.088-271.872 170.848 0 316.448 109.76 370.176 262.432l44.192-89.728 30.624 15.072zM413.408 772.16c0 56.416 45.92 102.336 102.336 102.336s102.368-45.92 102.368-102.336c0-56.448-45.92-102.368-102.368-102.368s-102.336 45.92-102.336 102.368z" />
<glyph unicode="&#xe906;" glyph-name="angle-down-circle" d="M511.232 875.008c-235.712 0-426.784-191.040-426.784-426.784s191.040-426.784 426.784-426.784 426.784 191.040 426.784 426.784-191.040 426.784-426.784 426.784zM511.232 55.616c-216.48 0-392.64 176.128-392.64 392.64s176.16 392.64 392.64 392.64 392.64-176.16 392.64-392.64c0-216.48-176.16-392.64-392.64-392.64zM486.848 346.4l24.128-24.128 193.12 193.12-24.128 24.128-168.992-168.992-168.192 168.192-24.128-24.128 96.416-96.416z" />
<glyph unicode="&#xe907;" glyph-name="angle-down" d="M487.456 346.4l24.128-24.128 193.12 193.12-24.128 24.128-168.992-168.992-168.192 168.192-24.128-24.128 96.416-96.416z" />
<glyph unicode="&#xe908;" glyph-name="angle-left-circle" d="M937.984 448.256c0 235.712-191.040 426.784-426.784 426.784s-426.784-191.040-426.784-426.784 191.040-426.784 426.784-426.784 426.784 191.040 426.784 426.784zM118.592 448.256c0 216.48 176.128 392.64 392.64 392.64s392.64-176.16 392.64-392.64-176.16-392.64-392.64-392.64c-216.48 0-392.64 176.16-392.64 392.64zM409.344 472.608l-24.128-24.128 193.12-193.12 24.128 24.128-168.992 168.992 168.192 168.192-24.128 24.128-96.416-96.416z" />
<glyph unicode="&#xe909;" glyph-name="angle-left" d="M409.344 472.544l-24.128-24.128 193.12-193.12 24.128 24.128-168.992 168.992 168.192 168.192-24.128 24.128-96.416-96.416z" />
<glyph unicode="&#xe90a;" glyph-name="angle-right-circle" d="M84.448 448.256c0-235.712 191.040-426.784 426.784-426.784s426.784 191.040 426.784 426.784-191.040 426.784-426.784 426.784-426.784-191.040-426.784-426.784zM903.84 448.256c0-216.48-176.128-392.64-392.64-392.64s-392.64 176.16-392.64 392.64 176.16 392.64 392.64 392.64c216.48 0 392.64-176.16 392.64-392.64zM613.088 423.872l24.128 24.128-193.12 193.12-24.128-24.128 168.992-168.992-168.192-168.192 24.128-24.128 96.416 96.416z" />
<glyph unicode="&#xe90b;" glyph-name="angle-right" d="M613.088 423.456l24.128 24.128-193.12 193.12-24.128-24.128 168.992-168.992-168.192-168.192 24.128-24.128 96.416 96.416z" />
<glyph unicode="&#xe90c;" glyph-name="angle-up-circle" d="M511.232 21.472c235.712 0 426.784 191.040 426.784 426.784s-191.040 426.784-426.784 426.784-426.784-191.040-426.784-426.784 191.040-426.784 426.784-426.784zM511.232 840.864c216.48 0 392.64-176.128 392.64-392.64s-176.16-392.64-392.64-392.64-392.64 176.16-392.64 392.64c0 216.48 176.16 392.64 392.64 392.64zM535.584 550.112l-24.128 24.128-193.12-193.12 24.128-24.128 168.992 168.992 168.192-168.192 24.128 24.128-96.416 96.416z" />
<glyph unicode="&#xe90d;" glyph-name="angle-up" d="M536.544 550.112l-24.128 24.128-193.12-193.12 24.128-24.128 168.992 168.992 168.192-168.192 24.128 24.128-96.416 96.416z" />
<glyph unicode="&#xe90e;" glyph-name="arc" horiz-adv-x="864" d="M718.496 717.664l95.584 95.584v-78.496h34.144v136.544h-136.544v-34.144h78.496l-95.584-95.584c-87.040 81.92-201.376 131.424-329.376 131.424-139.936 0-273.056-61.44-365.216-165.536l25.6-22.176c3.424 3.424 6.816 6.816 10.24 10.24l305.504-307.2-114.336-114.336h-85.344l-119.456-119.456h109.216v-109.216l119.456 119.456v85.344l114.336 114.336 305.504-305.504c-3.424-3.424-6.816-6.816-10.24-10.24l22.176-25.6c105.824 92.16 165.536 225.28 165.536 365.216 1.696 128-47.776 244.064-129.696 329.376zM216.736 180.064l-51.2-51.2v61.44h-59.744l51.2 51.2h61.44v-61.44zM59.744 719.36c81.92 76.8 191.136 119.456 305.504 119.456 117.76 0 225.28-46.080 305.504-119.456l-305.504-305.504-305.504 305.504zM694.624 693.76c75.104-80.224 119.456-187.744 119.456-305.504 0-114.336-42.656-221.856-119.456-305.504l-305.504 305.504 305.504 305.504z" />
<glyph unicode="&#xe90f;" glyph-name="attention" d="M511.968 848.896l-460.608-801.824h921.248l-460.64 801.824zM511.968 780.416l401.696-699.2h-803.36l401.664 699.2zM494.912 524.768h34.112v-238.848h-34.112v238.848zM511.936 234.752c-14.112 0-25.536-11.456-25.536-25.6 0-14.080 11.424-25.568 25.536-25.568 14.176 0 25.632 11.456 25.632 25.568 0 14.144-11.456 25.6-25.632 25.6z" />
<glyph unicode="&#xe910;" glyph-name="back-2" horiz-adv-x="960" d="M170.656 558.944v-566.624h785.056v785.056h-614.4v128l-341.344-232.096 170.656-114.336zM307.2 775.68c0 0 0-1.696 0 0v0-34.144h32.416c0 0 0 0 1.696 0 0 0 1.696 0 1.696 0h1.696c160.416 0 266.24-88.736 312.32-201.376-97.28 81.92-223.584 92.16-285.024 92.16-1.696 0-1.696 0-3.424 0h-61.44v-34.144c0 0 0 0 0 0v-90.464l-245.76 165.536 245.76 167.264v-64.864zM204.8 535.040l136.544-92.16v153.6c6.816 0 17.056 1.696 30.72 1.696 85.344 0 267.936-22.176 344.736-196.256 0 143.36-73.376 278.176-209.92 339.616h414.72v-716.8h-716.8v510.304z" />
<glyph unicode="&#xe911;" glyph-name="back" d="M460.448 705.408v-139.968l33.792-0.32c234.72-2.272 366.912-106.656 401.376-318.208-128.928 149.152-277.6 149.216-401.024 149.248h-34.144v-138.784l-316.288 224.032 316.288 224zM494.592 771.424l-409.44-290.016 409.44-290.016v170.624c163.872-0.064 315.808-8.32 444.288-237.44 0 145.504-24.032 470.592-444.288 474.656v172.192z" />
<glyph unicode="&#xe912;" glyph-name="ball" d="M511.968 874.496c-235.552 0-426.464-190.976-426.464-426.528s190.912-426.464 426.464-426.464c235.552 0 426.528 190.912 426.528 426.464s-190.976 426.528-426.528 426.528zM903.936 465.024h-305.984c3.264 117.216 39.936 228.608 106.784 324.544 114.4-64.832 193.184-185.376 199.2-324.544zM511.968 840.384c57.632 0 112.32-12.608 161.664-34.976-69.152-100.8-106.912-217.664-110.112-340.352h-103.040c-3.232 122.72-40.992 239.584-110.144 340.352 49.344 22.4 104.032 34.976 161.632 34.976zM319.232 789.568c66.848-95.904 103.52-207.296 106.784-324.544h-305.984c5.952 139.168 84.8 259.744 199.2 324.544zM120.064 430.912h306.304c-3.264-117.312-39.872-228.8-106.752-324.704-114.592 64.768-193.568 185.408-199.552 324.704zM511.968 55.616c-57.6 0-112.288 12.576-161.632 34.976 69.184 100.768 106.912 217.536 110.144 340.288h103.040c3.2-122.784 40.992-239.552 110.112-340.288-49.344-22.4-104.032-34.976-161.664-34.976zM704.288 106.176c-66.848 95.904-103.424 207.392-106.656 324.736h306.304c-5.984-139.328-84.992-259.968-199.648-324.736z" />
<glyph unicode="&#xe913;" glyph-name="bandaid" horiz-adv-x="960" d="M938.656 695.456l-216.736 216.736c-6.816 6.816-15.36 10.24-23.904 10.24s-17.056-3.424-23.904-10.24l-663.904-663.904c-13.664-13.664-13.664-34.144 0-47.776l216.736-216.736c6.816-6.816 15.36-10.24 23.904-10.24s17.056 3.424 23.904 10.24l663.904 663.904c13.664 11.936 13.664 34.144 0 47.776zM481.28 238.080l-216.736 216.736 192.864 192.864 216.736-216.736-192.864-192.864zM250.88 7.68l-216.736 216.736 206.496 206.496 216.736-216.736-206.496-206.496zM698.016 454.816l-216.736 216.736 216.736 216.736c0 0 0 0 0 0v0l216.736-216.736-216.736-216.736zM691.2 744.96c0-9.44-7.648-17.056-17.056-17.056s-17.056 7.648-17.056 17.056c0 9.44 7.648 17.056 17.056 17.056s17.056-7.648 17.056-17.056zM788.48 647.68c0-9.44-7.648-17.056-17.056-17.056s-17.056 7.648-17.056 17.056c0 9.44 7.648 17.056 17.056 17.056s17.056-7.648 17.056-17.056zM619.52 671.584c0-9.44-7.648-17.056-17.056-17.056s-17.056 7.648-17.056 17.056c0 9.44 7.648 17.056 17.056 17.056s17.056-7.648 17.056-17.056zM715.104 576c0-9.44-7.648-17.056-17.056-17.056s-17.056 7.648-17.056 17.056c0 9.44 7.648 17.056 17.056 17.056s17.056-7.648 17.056-17.056zM257.696 309.76c0-9.44-7.648-17.056-17.056-17.056s-17.056 7.648-17.056 17.056c0 9.44 7.648 17.056 17.056 17.056s17.056-7.648 17.056-17.056zM353.28 214.176c0-9.44-7.648-17.056-17.056-17.056s-17.056 7.648-17.056 17.056c0 9.44 7.648 17.056 17.056 17.056s17.056-7.648 17.056-17.056zM184.32 238.080c0-9.44-7.648-17.056-17.056-17.056s-17.056 7.648-17.056 17.056c0 9.44 7.648 17.056 17.056 17.056s17.056-7.648 17.056-17.056zM281.6 140.8c0-9.44-7.648-17.056-17.056-17.056s-17.056 7.648-17.056 17.056c0 9.44 7.648 17.056 17.056 17.056s17.056-7.648 17.056-17.056z" />
<glyph unicode="&#xe914;" glyph-name="battery" d="M0.64 619.232v-342.464c0-27.936 22.656-50.56 50.56-50.56h427.136v443.552h-427.136c-27.904 0-50.56-22.624-50.56-50.56zM444.224 260.352h-393.024c-9.056 0-16.416 7.392-16.416 16.448v342.464c0 9.056 7.36 16.416 16.416 16.416h393.024v-375.328zM1023.36 448c0 56.224-45.344 101.856-101.472 102.304v68.928c0 27.936-22.624 50.56-50.56 50.56h-358.88v-34.112h358.88c9.056 0 16.416-7.36 16.416-16.416v-342.464c0-9.056-7.36-16.448-16.416-16.448h-358.88v-34.112h358.88c27.936 0 50.56 22.624 50.56 50.56v68.896c56.096 0.48 101.472 46.048 101.472 102.304zM921.888 379.84v136.32c37.216-0.512 67.328-30.816 67.328-68.16s-30.144-67.648-67.328-68.16z" />
<glyph unicode="&#xe915;" glyph-name="bell" d="M802.368 276v274.176c0 142.784-103.328 261.184-239.168 285.28v21.792c0 18.848-15.296 34.112-34.112 34.112h-34.112c-18.848 0-34.112-15.264-34.112-34.112v-21.888c-135.584-24.352-238.496-142.656-238.496-285.184v-274.176l-119.744-96.928v-55.328h818.88v55.328l-119.072 96.928zM887.328 157.888h-750.624v4.928l119.744 96.928v290.464c0 141.12 114.784 255.904 255.904 255.904 141.088 0 255.904-114.784 255.904-255.904v-290.4l119.072-96.928v-4.96zM511.968 4.608c47.136 0 85.408 38.144 85.408 85.312h-170.72c0.032-47.136 38.24-85.312 85.344-85.312z" />
<glyph unicode="&#xe916;" glyph-name="bicycle" d="M836.128 541.856c-23.584 0-46.080-4.576-66.88-12.544l-83.968 166.048h65.568v34.112h-121.024l34.496-68.256h-295.552l-17.216 34.112h58.112v34.112h-113.568l38.368-76c-0.192-0.288-0.48-0.512-0.64-0.8l-72.352-125.92c-22.624 9.696-47.488 15.072-73.632 15.072-103.488 0-187.648-84.192-187.648-187.68s84.192-187.648 187.648-187.648c97.696 0 178.144 75.104 186.784 170.592h139.648c6.080 0 11.68 3.232 14.752 8.512l157.536 271.52 52.032-102.88c-53.952-32.992-90.176-92.288-90.176-160.064 0-103.488 84.192-187.68 187.648-187.68s187.648 84.192 187.648 187.68-84.192 187.68-187.648 187.68zM352.768 617.216l124.192-245.984h-102.336c-5.28 58.080-37.056 108.576-83.168 139.264l61.28 106.72zM340.384 371.232h-128.928l62.976 109.632c35.936-24.672 60.864-64.16 65.952-109.632zM187.872 200.64c-84.672 0-153.536 68.864-153.536 153.536s68.864 153.568 153.536 153.568c19.936 0 38.944-3.936 56.416-10.88l-77.088-134.176c-3.040-5.28-3.008-11.776 0.032-17.056s8.672-8.512 14.752-8.512h158.4c-8.544-76.64-73.664-136.48-152.544-136.48zM510.208 381.12l-124.224 246.016h267.008l-142.752-246.016zM836.128 200.608c-84.672 0-153.536 68.896-153.536 153.568 0 54.464 28.576 102.272 71.488 129.536l72.224-142.88 30.464 15.392-72.032 142.432c16.096 5.76 33.344 9.056 51.392 9.056 84.672 0 153.536-68.896 153.536-153.568s-68.864-153.568-153.536-153.568z" />
<glyph unicode="&#xe917;" glyph-name="bluetooth" horiz-adv-x="512" d="M237.952-62.464v466.464l-203.584-203.456-23.744 23.744 215.616 215.456-226.272 226.080 23.744 23.744 214.24-214.080v482.944l277.376-277.216-241.6-241.472 233.408-233.248-269.184-268.992zM271.52 394.496v-375.968l188.128 188-188.128 187.968zM271.52 877.472v-392.448l196.32 196.224-196.32 196.224z" />
<glyph unicode="&#xe918;" glyph-name="bookmarks" d="M870.304 840.48h-307.072c-20.512 0-38.72-9.248-51.2-23.616-12.544 14.368-30.72 23.616-51.232 23.616h-307.072c-37.696 0-68.224-30.56-68.224-68.224v-580.288c0-37.696 30.56-68.256 68.224-68.256h307.072c0.32 0 0.672 0.096 0.992 0.096 18.144-0.448 32.8-15.072 33.216-33.216v-35.136h34.112v18.912h0.32v15.392c0 18.432 14.72 33.44 33.056 34.016 0.224 0 0.512-0.096 0.736-0.096h307.072c37.696 0 68.256 30.56 68.256 68.256v580.288c0 37.696-30.56 68.224-68.256 68.224zM119.584 192v580.288c0 18.816 15.328 34.112 34.112 34.112h307.072c18.816 0 34.112-15.328 34.112-34.112v-580.288c0-18.816-15.296-34.112-34.112-34.112h-307.072c-18.784 0-34.112 15.328-34.112 34.112zM904.416 192c0-18.816-15.296-34.112-34.112-34.112h-307.072c-18.784 0-34.112 15.328-34.112 34.112v580.288c0 18.816 15.328 34.112 34.112 34.112h307.072c18.816 0 34.112-15.328 34.112-34.112v-580.288z" />
<glyph unicode="&#xe919;" glyph-name="bottom-arrow" horiz-adv-x="832" d="M0 448c0-231.776 187.872-419.616 419.616-419.616s419.616 187.84 419.616 419.616c0 231.744-187.872 419.616-419.616 419.616s-419.616-187.872-419.616-419.616zM805.664 448c0-212.864-173.184-386.048-386.048-386.048s-386.048 173.184-386.048 386.048c0 212.864 173.152 386.048 386.048 386.048s386.048-173.184 386.048-386.048zM239.2 422.528l-23.744-23.744 204.128-204.128 204.096 204.128-23.744 23.744-163.584-163.584v407.264h-33.568v-407.264z" />
<glyph unicode="&#xe91a;" glyph-name="box1" d="M921.44 831.84h-818.88v-221.792h34.144v-545.92h750.624v545.92h34.112v221.792zM853.216 98.272h-682.368v511.808h682.368v-511.808zM887.328 644.192h-750.624v153.536h750.624v-153.536zM388.608 388.128h247.648c35.264 0 63.872 27.776 63.872 62.048v12.352c0 34.272-28.608 62.048-63.872 62.048h-247.648c-35.264 0-63.84-27.776-63.84-62.048v-12.352c0-34.272 28.544-62.048 63.84-62.048zM358.88 462.56c0 15.424 13.312 27.936 29.696 27.936h247.648c16.384 0 29.728-12.544 29.728-27.936v-12.352c0-15.424-13.344-27.936-29.728-27.936h-247.648c-16.384 0-29.696 12.544-29.696 27.936v12.352z" />
<glyph unicode="&#xe91b;" glyph-name="box2" d="M955.872 767.168l-443.872 163.2-460.608-169.056v-628.544l460.608-167.104 460.608 167.104v628.288l-16.768 6.144zM494.944 8.128l-409.44 148.544v567.904l409.44-148.544v-567.904zM512 606.144l-394.432 143.104 394.432 144.768 394.080-144.896-394.080-142.976zM938.496 156.672l-409.44-148.544v567.904l409.44 147.936v-567.296z" />
<glyph unicode="&#xe91c;" glyph-name="browser" d="M85.504 874.496v-852.992h853.024v852.992h-853.024zM904.384 840.384v-136.48h-784.768v136.48h784.768zM119.616 55.616v614.144h784.768v-614.144h-784.768zM307.264 789.184h528.864v-34.112h-528.864v34.112zM170.784 789.184h34.112v-34.112h-34.112v34.112zM239.040 789.184h34.112v-34.112h-34.112v34.112z" />
<glyph unicode="&#xe91d;" glyph-name="calculator" d="M273.152 635.648h477.696v136.48h-477.696v-136.48zM307.264 738.016h409.44v-68.224h-409.44v68.256zM750.848 857.44h-477.696c-37.696 0-68.256-30.56-68.256-68.256v-682.4c0-37.696 30.56-68.256 68.256-68.256h477.696c37.696 0 68.256 30.56 68.256 68.256v682.4c0 37.696-30.56 68.224-68.256 68.224zM784.96 106.784c0-18.816-15.296-34.112-34.112-34.112h-477.696c-18.816 0-34.112 15.296-34.112 34.112v682.4c0 18.784 15.328 34.112 34.112 34.112h477.696c18.816 0 34.112-15.328 34.112-34.112v-682.4zM307.264 482.112v102.368h-34.112v-136.48h136.48v34.112h-34.112zM307.264 311.52v102.368h-34.112v-136.48h136.48v34.112h-34.112zM307.264 140.928v102.368h-34.112v-136.48h136.48v34.112h-34.112zM477.888 482.112v102.368h-34.112v-136.48h136.48v34.112h-34.112zM648.48 482.112v102.368h-34.112v-136.48h136.48v34.112h-34.112zM477.888 311.52v102.368h-34.112v-136.48h136.48v34.112h-34.112zM477.888 140.928v102.368h-34.112v-136.48h136.48v34.112h-34.112zM648.48 140.928v272.96h-34.112v-307.072h136.48v34.112h-34.112z" />
<glyph unicode="&#xe91e;" glyph-name="call" d="M749.024-12.608c-77.792 0-266.912 99.488-425.696 313.056-148.512 199.744-220.736 344.032-220.736 441.12 0 76.448 52.8 112.928 81.152 132.544l7.008 4.896c31.328 22.4 80.064 29.664 98.752 29.664 32.768 0 46.56-19.168 54.912-35.872 7.104-14.144 65.952-140.48 71.904-156.192 9.152-24.16 6.144-59.36-22.144-79.616l-4.96-3.456c-14.048-9.728-40.16-27.808-43.776-49.824-1.76-10.688 1.824-21.888 10.944-34.176 45.536-61.376 190.976-241.6 217.184-266.048 20.544-19.2 46.56-21.92 64.288-6.976 18.336 15.456 26.496 24.576 26.56 24.704l1.888 1.824c1.536 1.312 15.872 12.672 39.296 12.672 16.896 0 34.080-5.824 51.072-17.312 44.096-29.792 143.584-96.352 143.584-96.352l1.6-1.216c12.736-10.912 31.136-42.336 9.664-83.232-22.24-42.464-91.2-130.112-162.528-130.112zM289.472 874.496c-16.16 0-55.872-6.816-78.912-23.296l-7.424-5.184c-26.464-18.304-66.432-45.92-66.432-104.48 0-89.504 70.016-227.136 213.984-420.768 157.248-211.488 337.024-299.296 398.304-299.296 52.128 0 111.904 72.832 132.32 111.808 12.544 23.936 2.272 37.44-1.28 41.088-11.52 7.712-101.248 67.744-142.496 95.616-11.232 7.616-22.016 11.456-31.968 11.456-9.056 0-15.008-3.2-17.024-4.48-3.328-3.552-12.48-12.96-28.768-26.656-30.432-25.632-76.736-22.528-109.568 8.128-29.536 27.584-178.72 213.312-221.312 270.688-14.72 19.84-20.512 40.064-17.216 60.064 5.984 36.256 39.84 59.712 58.016 72.32l4.544 3.168c16.256 11.616 12.8 32.64 10.112 39.744-5.024 13.248-63.136 138.304-70.496 152.992-6.016 12.032-10.752 17.056-24.448 17.056z" />
<glyph unicode="&#xe91f;" glyph-name="camera" d="M870.24 669.792h-141.12l-82.048 82.24c-0.096 0.096-0.192 0.16-0.256 0.256l-0.16 0.128c-12.32 12.192-29.248 19.712-47.968 19.712h-170.592c-19.84 0-37.504-8.576-49.984-22.048l-0.064 0.192-80.352-80.512h-144c-37.696 0-68.224-30.56-68.224-68.256v-409.44c0-37.696 30.56-68.256 68.224-68.256h716.512c37.696 0 68.256 30.56 68.256 68.256v409.44c0 37.696-30.56 68.256-68.256 68.256zM904.384 192.096c0-18.784-15.328-34.112-34.144-34.112h-716.512c-18.816 0-34.112 15.328-34.112 34.112v409.44c0 18.816 15.328 34.112 34.112 34.112h158.144l51.328 51.424 0.832-2.496 39.168 42.368c6.624 7.168 15.488 11.104 24.928 11.104h170.592c9.024 0 17.536-3.488 24.224-10.112l92.032-92.256h155.264c18.816 0 34.144-15.296 34.144-34.112v-409.44zM512 635.648c-122.496 0-221.792-99.264-221.792-221.76s99.296-221.824 221.792-221.824 221.792 99.328 221.792 221.824-99.296 221.76-221.792 221.76zM512 226.208c-103.488 0-187.648 84.192-187.648 187.68s84.192 187.616 187.648 187.616 187.648-84.16 187.648-187.616c0-103.488-84.192-187.68-187.648-187.68zM512 567.424c-84.832 0-153.536-68.704-153.536-153.504s68.736-153.568 153.536-153.568 153.536 68.768 153.536 153.568-68.736 153.504-153.536 153.504zM512 294.464c-65.856 0-119.424 53.6-119.424 119.456s53.568 119.392 119.424 119.392 119.424-53.536 119.424-119.392-53.568-119.456-119.424-119.456z" />
<glyph unicode="&#xe920;" glyph-name="car" horiz-adv-x="928" d="M187.744 465.056c-37.536 0-68.256-30.72-68.256-68.256s30.72-68.256 68.256-68.256 68.256 30.72 68.256 68.256-30.72 68.256-68.256 68.256zM187.744 362.656c-18.784 0-34.144 15.36-34.144 34.144s15.36 34.144 34.144 34.144c18.784 0 34.144-15.36 34.144-34.144s-15.36-34.144-34.144-34.144zM733.856 465.056c-37.536 0-68.256-30.72-68.256-68.256s30.72-68.256 68.256-68.256c37.536 0 68.256 30.72 68.256 68.256s-30.72 68.256-68.256 68.256zM733.856 362.656c-18.784 0-34.144 15.36-34.144 34.144s15.36 34.144 34.144 34.144c18.784 0 34.144-15.36 34.144-34.144s-15.36-34.144-34.144-34.144zM803.84 601.6l-29.024 136.544c-11.936 44.384-46.080 68.256-92.16 68.256h-443.744c-47.776 0-75.104-23.904-88.736-68.256l-30.72-136.544h-119.456v-34.144h110.944v-1.696c-52.896-3.424-93.856-47.776-93.856-102.4v-237.216h51.2v-51.2c0-47.776 37.536-85.344 85.344-85.344s85.344 37.536 85.344 85.344v51.2h443.744v-51.2c0-47.776 37.536-85.344 85.344-85.344s85.344 37.536 85.344 85.344v51.2h51.2v237.216c0 52.896-40.96 97.28-92.16 102.4v1.696h109.216v34.144h-117.76zM182.624 727.904c10.24 30.72 25.6 44.384 56.32 44.384h443.744c32.416 0 51.2-13.664 59.744-42.656l34.144-163.84h-631.456l37.536 162.144zM204.8 174.944c0-29.024-22.176-51.2-51.2-51.2s-51.2 22.176-51.2 51.2v51.2h102.4v-51.2zM819.2 174.944c0-29.024-22.176-51.2-51.2-51.2s-51.2 22.176-51.2 51.2v51.2h102.4v-51.2zM870.4 463.36v-203.104h-819.2v203.104c0 37.536 30.72 68.256 68.256 68.256h682.656c37.536 0 68.256-30.72 68.256-68.256z" />
<glyph unicode="&#xe921;" glyph-name="cart" d="M979.904 652.736h-717.024l-57.888 238.848h-160.864v-34.112h134.016l166.336-686.176c-35.456-10.336-61.536-42.688-61.536-81.504 0-47.104 38.176-85.312 85.312-85.312s85.312 38.208 85.312 85.312c0 19.296-6.656 36.896-17.44 51.168h239.584c-10.784-14.272-17.44-31.904-17.44-51.168 0-47.104 38.176-85.312 85.28-85.312s85.312 38.208 85.312 85.312c0 47.136-38.176 85.28-85.312 85.312v0h-364.896l-16.544 68.256h478.976l138.784 409.44zM419.424 89.728c0-28.224-22.944-51.168-51.168-51.168s-51.168 22.944-51.168 51.168c0 28.224 22.944 51.168 51.168 51.168s51.168-22.976 51.168-51.168zM794.752 89.728c0-28.224-22.976-51.168-51.2-51.168s-51.168 22.944-51.168 51.168c0 28.224 22.944 51.168 51.168 51.168s51.2-22.976 51.2-51.168zM353.856 277.408l-82.72 341.184h661.184l-115.68-341.184h-462.784z" />
<glyph unicode="&#xe922;" glyph-name="cash" horiz-adv-x="928" d="M537.088 615.84c-55.584 0-100.704-45.088-100.704-100.704s45.12-100.736 100.704-100.736c55.648 0 100.704 45.088 100.704 100.736s-45.088 100.704-100.704 100.704zM537.088 448c-36.992 0-67.136 30.112-67.136 67.168s30.112 67.136 67.136 67.136c37.056 0 67.136-30.112 67.136-67.136s-30.112-67.168-67.136-67.168zM134.272 766.912v-503.52h805.632v503.52h-805.632zM906.368 653.344v-356.384h-738.496v436.384h738.496v-80zM759.872 229.792h-659.168v469.952h-33.568v-503.52h805.664v33.568h-33.568zM692.736 162.656h-659.168v469.952h-33.568v-503.52h805.664v33.568h-33.568zM218.208 698.72h100.704v-33.568h-100.704v33.568zM218.208 364.064h100.704v-33.568h-100.704v33.568zM755.296 698.72h100.704v-33.568h-100.704v33.568zM755.296 364.064h100.704v-33.568h-100.704v33.568z" />
<glyph unicode="&#xe923;" glyph-name="chat" d="M682.592 618.592v255.904h-597.088v-460.608h255.904v-255.904h354.016l136.48-136.448h21.28v136.448h85.312v460.608h-255.904zM119.616 448v392.384h528.864v-221.792h-307.072v-170.592h-221.792zM904.384 192.096h-85.312v-109.504l-109.536 109.504h-334.048v392.384h528.864v-392.384z" />
<glyph unicode="&#xe924;" glyph-name="check" d="M512 874.496c-235.552 0-426.496-190.944-426.496-426.496s190.976-426.496 426.496-426.496c235.552 0 426.496 190.944 426.496 426.496s-190.944 426.496-426.496 426.496zM512 55.616c-216.352 0-392.384 176.032-392.384 392.384s176 392.384 392.384 392.384c216.352 0 392.384-176.032 392.384-392.384s-176-392.384-392.384-392.384zM725.344 600.288l-273.888-265.568-95.936 95.936c-9.984 9.984-26.176 9.984-36.192 0s-9.984-26.176 0-36.192l113.76-113.76c4.992-4.992 11.552-7.488 18.080-7.488 6.4 0 12.832 2.4 17.792 7.2l291.968 283.136c10.144 9.856 10.4 26.048 0.576 36.192-9.888 10.176-26.048 10.4-36.192 0.576z" />
<glyph unicode="&#xe925;" glyph-name="clock" d="M512 857.44c-226.112 0-409.44-183.328-409.44-409.44s183.328-409.44 409.44-409.44 409.44 183.328 409.44 409.44c0 226.112-183.328 409.44-409.44 409.44zM512 72.672c-206.944 0-375.328 168.352-375.328 375.328s168.352 375.328 375.328 375.328 375.328-168.352 375.328-375.328c0-206.944-168.352-375.328-375.328-375.328zM512 413.888h-204.736v-34.112h238.848v339.808h-34.112z" />
<glyph unicode="&#xe926;" glyph-name="close-circle" d="M210.432 749.568c-166.56-166.56-166.56-436.576 0-603.168s436.576-166.56 603.168 0c166.592 166.592 166.592 436.576 0 603.168s-436.576 166.56-603.168 0zM789.44 170.56c-152.992-152.992-401.92-152.992-554.912 0s-152.992 401.92 0 554.912c152.992 152.992 401.92 152.992 554.912 0s152.96-401.92 0-554.912zM343.104 640.992l-24.128-24.128 168.896-168.896-168.096-168.096 24.128-24.128 168.096 168.096 168.096-168.096 24.128 24.128-168.096 168.096 168.896 168.896-24.128 24.128-168.896-168.896z" />
<glyph unicode="&#xe927;" glyph-name="close" d="M343.104 640.992l-24.128-24.128 168.896-168.896-168.096-168.096 24.128-24.128 168.096 168.096 168.096-168.096 24.128 24.128-168.096 168.096 168.896 168.896-24.128 24.128-168.896-168.896z" />
<glyph unicode="&#xe928;" glyph-name="cloud-download" d="M641.6 148.384l24.192-24.192-152.8-152.8-152.8 152.8 24.192 24.192 111.616-111.616v446.592h34.016v-446.592l111.616 111.616zM837.6 653.792c0 2.816 0.384 5.408 0.384 8 0 146.208-118.4 264.608-264.384 264.608-105.184 0-195.808-61.6-238.4-150.592-18.4 9.184-39.2 14.592-61.184 14.592-67.584 0-123.584-49.184-134.4-113.6-80.416-27.616-138.4-103.808-138.4-193.6 0-112.992 91.584-204.608 204.608-204.608h222.016v34.208h-222.016c-94.016 0-170.4 76.608-170.4 170.592 0 72.8 46.4 137.6 115.392 161.408l19.2 6.592 3.392 20c8.416 49.408 50.784 85.184 100.8 85.184 16 0 31.392-3.808 45.792-11.008l31.2-15.584 15.008 31.392c38.208 79.808 119.616 131.2 207.616 131.2 126.784-0.416 230.208-103.584 230.208-230.592 0-0.608 0-1.408-0.192-2.208-0.192-1.6-0.192-3.392-0.192-5.184l-0.8-34.816 34.784-0.192c84.384-0.192 153.216-69.184 153.216-153.6 0-84.192-68.608-152.992-152.8-153.408h-239.808v-34.208h239.808c103.2 0.608 186.784 84.384 186.784 187.616 0 103.616-83.808 187.616-187.2 187.808z" />
<glyph unicode="&#xe929;" glyph-name="cloud-upload" d="M384.8 443.008l-24.192 24.192 152.8 152.8 152.8-152.8-24.192-24.192-111.616 111.616v-446.592h-34.208v446.592l-111.392-111.616zM838.208 653.792c0 2.816 0.384 5.408 0.384 8 0 146.208-118.4 264.608-264.608 264.608-105.184 0-195.808-61.6-238.4-150.592-18.4 9.184-39.2 14.592-61.184 14.592-67.584 0-123.584-49.184-134.4-113.6-80.416-27.616-138.4-103.808-138.4-193.6 0-112.992 91.584-204.608 204.608-204.608h222.016v34.208h-222.016c-94.016 0-170.4 76.608-170.4 170.592 0 72.8 46.4 137.6 115.392 161.408l19.2 6.592 3.392 20c8.416 49.408 50.784 85.184 100.8 85.184 16 0 31.392-3.808 45.792-11.008l31.2-15.584 15.008 31.392c38.016 79.392 119.392 130.816 207.392 130.816 127.008 0 230.4-103.392 230.4-230.4 0-0.608 0-1.408-0.192-2.208-0.192-1.6-0.192-3.392-0.192-5.184l-0.8-34.816 34.784-0.192c84.384-0.192 153.184-69.184 153.184-153.6 0-84.192-68.608-152.992-152.8-153.408h-239.616v-34.208h239.808c103.2 0.608 186.784 84.384 186.784 187.616-0.192 103.808-83.808 187.808-187.2 188z" />
<glyph unicode="&#xe92a;" glyph-name="cloud" d="M572.608 737.76c127.008 0 230.304-103.296 230.304-230.304 0-0.704-0.096-1.44-0.128-2.144-0.096-1.696-0.224-3.392-0.256-5.12l-0.864-34.816 34.88-0.128c84.384-0.224 153.056-69.12 153.056-153.504 0-84.16-68.512-153.024-152.736-153.472l-7.456-0.032h-624.544c-93.984 0.096-170.464 76.608-170.464 170.56 0 72.8 46.336 137.6 115.296 161.28l19.2 6.56 3.392 20c8.352 49.344 50.752 85.152 100.768 85.152 15.936 0 31.36-3.712 45.792-10.976l31.104-15.616 15.008 31.392c38.144 79.712 119.648 131.2 207.616 131.2zM572.608 771.904c-105.216 0-195.84-61.6-238.4-150.56-18.4 9.28-39.136 14.592-61.152 14.592-67.552 0-123.488-49.152-134.4-113.6-80.448-27.584-138.368-103.68-138.368-193.536 0-112.992 91.584-204.576 204.544-204.672l632.192 0.032c103.2 0.544 186.688 84.288 186.688 187.584 0 103.456-83.68 187.328-187.072 187.616 0.064 2.72 0.384 5.376 0.384 8.096 0 146.048-118.4 264.416-264.416 264.416v0z" />
<glyph unicode="&#xe92b;" glyph-name="coffee" d="M767.040 328.576h137.344v272.96h-784.768v-255.904c0-179.008 145.12-324.128 324.128-324.128 173.248 0 314.368 136.032 323.264 307.072zM767.904 567.424h102.368v-204.704h-102.368v204.736zM443.744 55.616c-159.904 0-290.016 130.112-290.016 290.016v221.792h580.032v-221.792c0-159.936-130.112-290.016-290.016-290.016zM119.616-12.608h648.288v34.112h-648.288zM290.208 857.44h34.112v-153.536h-34.112v153.536zM563.168 857.44h34.112v-153.536h-34.112v153.536zM426.688 908.608h34.112v-204.736h-34.112v204.704z" />
<glyph unicode="&#xe92c;" glyph-name="comment" d="M853.248 805.76h-682.496c-37.696 0-68.224-30.56-68.224-68.256v-443.776c0-37.696 30.56-68.256 68.224-68.256h478.976l135.232-135.232v135.232h68.288c37.696 0 68.256 30.56 68.256 68.256v443.776c0 37.696-30.56 68.256-68.256 68.256zM887.36 293.728c0-18.816-15.328-34.112-34.112-34.112h-102.4v-86.976l-86.976 86.976h-493.12c-18.816 0-34.112 15.296-34.112 34.112v443.776c0 18.816 15.328 34.112 34.112 34.112h682.496c18.816 0 34.112-15.296 34.112-34.112v-443.776zM512 549.632c-18.848 0-34.112-15.296-34.112-34.112s15.264-34.112 34.112-34.112 34.112 15.264 34.112 34.112c0 18.816-15.264 34.112-34.112 34.112zM648.48 549.632c-18.848 0-34.112-15.296-34.112-34.112s15.264-34.112 34.112-34.112 34.112 15.264 34.112 34.112c0 18.816-15.264 34.112-34.112 34.112zM378.72 549.632c-18.848 0-34.112-15.296-34.112-34.112s15.264-34.112 34.112-34.112 34.112 15.264 34.112 34.112c0 18.816-15.264 34.112-34.112 34.112z" />
<glyph unicode="&#xe92d;" glyph-name="compass" d="M575.744 784.224c13.248 15.040 21.568 34.56 21.568 56.16 0 47.104-38.176 85.28-85.312 85.28s-85.312-38.176-85.312-85.28c0-21.6 8.288-41.12 21.568-56.16-195.84-30.624-345.696-200.032-345.696-404.48 0-226.144 183.328-409.44 409.44-409.44s409.44 183.296 409.44 409.44c0 204.448-149.856 373.856-345.696 404.48zM512 891.552c28.224 0 51.168-22.944 51.168-51.168s-22.944-51.168-51.168-51.168-51.168 22.944-51.168 51.168 22.944 51.168 51.168 51.168zM512 4.448c-206.944 0-375.328 168.352-375.328 375.328s168.352 375.328 375.328 375.328 375.328-168.352 375.328-375.328-168.352-375.328-375.328-375.328zM307.36 174.784l277.6 131.488 131.488 277.632-278.528-130.592-130.592-278.496zM455.904 411.2l87.072-87.072-164.416-77.856 77.344 164.96zM567.104 348.224l-87.072 87.072 164.96 77.344-77.888-164.448z" />
<glyph unicode="&#xe92e;" glyph-name="config" d="M563.168 840.384v-83.136l25.6-6.624c28.96-7.488 56.576-19.104 82.112-34.592l22.88-13.888 59.52 59.52 72.384-72.384-60.416-60.416 13.024-22.656c14.432-25.12 25.216-52.32 32.064-80.864l6.272-26.144h87.808v-102.368h-89.792l-6.912-25.024c-7.456-27.008-18.656-52.928-33.28-76.992l-13.888-22.912 65.152-65.12-72.384-72.384-66.048 66.048-22.624-13.024c-23.488-13.504-48.992-23.84-75.776-30.752l-25.6-6.592v-94.432h-102.368v94.432l-25.6 6.592c-26.784 6.912-52.288 17.248-75.776 30.752l-22.656 13.024-66.048-66.048-72.384 72.384 65.152 65.12-13.888 22.912c-14.624 24.096-25.824 49.984-33.28 76.992l-6.912 25.024h-89.792v102.368h87.808l6.272 26.144c6.816 28.512 17.632 55.744 32.064 80.864l13.024 22.656-60.416 60.416 72.384 72.384 59.52-59.52 22.88 13.888c25.536 15.488 53.152 27.136 82.112 34.592l25.6 6.624v83.136h102.368zM512 294.432c84.672 0 153.536 68.896 153.536 153.568s-68.864 153.568-153.536 153.568-153.536-68.896-153.536-153.568c0-84.672 68.864-153.568 153.536-153.568zM597.312 874.496h-170.592v-90.848c-32.576-8.416-63.2-21.44-91.264-38.464l-64.704 64.704-120.608-120.64 66.080-66.080c-15.936-27.744-28-57.92-35.648-89.888h-95.040v-170.592h97.92c8.416-30.496 20.96-59.2 36.992-85.632l-70.336-70.336 120.608-120.64 71.712 71.712c26.112-15.008 54.4-26.496 84.256-34.208v-102.112h170.592v102.112c29.856 7.712 58.144 19.2 84.256 34.208l71.712-71.712 120.608 120.64-70.336 70.336c16.032 26.432 28.576 55.136 36.992 85.632h97.92v170.592h-95.040c-7.648 31.968-19.712 62.112-35.648 89.888l66.080 66.080-120.608 120.64-64.704-64.704c-28.064 17.024-58.688 30.048-91.264 38.464v90.848zM512 328.544c-65.984 0-119.424 53.472-119.424 119.456s53.44 119.424 119.424 119.424 119.424-53.472 119.424-119.424c0-65.984-53.44-119.456-119.424-119.456v0z" />
<glyph unicode="&#xe92f;" glyph-name="copy-file" d="M891.040 723.68l-172.288 172.288h-379.040v-137.824h-206.752v-758.080h551.328v137.824h206.752v585.792zM718.752 847.232l123.552-123.552h-123.552v123.552zM167.424 34.496v689.184h310.144v-172.288h172.288v-516.896h-482.432zM512 709.408l123.552-123.552h-123.552v123.552zM684.288 172.32v413.504l-172.288 172.288h-137.824v103.392h310.144v-172.288h172.288v-516.896h-172.288z" />
<glyph unicode="&#xe930;" glyph-name="credit" d="M921.44 755.072h-818.88c-28.256 0-51.168-22.912-51.168-51.168v-511.808c0-28.288 22.912-51.168 51.168-51.168h818.88c28.256 0 51.168 22.88 51.168 51.168v511.808c0 28.256-22.912 51.168-51.168 51.168zM85.504 618.592h852.992v-68.256h-852.992v68.256zM938.496 192.096c0-9.408-7.648-17.056-17.056-17.056h-818.88c-9.408 0-17.056 7.648-17.056 17.056v324.128h852.992v-324.128zM85.504 652.736v51.168c0 9.408 7.648 17.056 17.056 17.056h818.88c9.408 0 17.056-7.648 17.056-17.056v-51.168h-852.992zM153.728 277.408h341.184v-34.112h-341.184v34.112zM153.728 379.744h204.736v-34.112h-204.704v34.112zM767.392 243.264h69.28c18.528 0 33.6 14.784 33.6 33.088v2.048c0 18.272-15.040 33.12-33.6 33.12h-69.28c-18.56 0-33.632-14.816-33.632-33.12v-2.048c0-18.304 15.040-33.088 33.632-33.088z" />
<glyph unicode="&#xe931;" glyph-name="crop" d="M802.016 175.168v553.856l62.112 61.888-24.096 24.16-60.224-60h-557.664v102.368h-34.112v-102.368h-102.56v-34.112h102.56v-579.904h579.84v-102.496h34.112v102.496h136.48v34.112h-136.48zM745.6 720.96l-523.424-521.76v521.76h523.424zM246.4 175.168l521.504 519.84v-519.84h-521.504z" />
<glyph unicode="&#xe932;" glyph-name="culture" d="M863.84 574.528h136.256l-494.624 292.864-481.568-292.864h123.424v-511.808h-68.224v-34.112h852.992v34.112h-68.256v511.808zM145.696 608.64l360 218.944 369.792-218.944h-729.824zM181.44 62.72v511.808h102.368v-511.808h-102.368zM317.92 62.72v511.808h102.368v-511.808h-102.368zM454.4 62.72v511.808h102.368v-511.808h-102.368zM590.88 62.72v511.808h102.368v-511.808h-102.368zM727.36 62.72v511.808h102.368v-511.808h-102.368z" />
<glyph unicode="&#xe933;" glyph-name="cup" d="M904.384 874.4c-1.248 0-2.4-0.288-3.616-0.352h-98.72v0.352l-678.784-0.352c-1.248 0.064-2.4 0.352-3.648 0.352-37.696 0-68.224-30.56-68.224-68.256 0-18.944 7.744-36.096 20.224-48.448l150.368-150.368v11.136c0-154.4 120.768-280.288 272.96-289.152v-273.632h-136.48v-34.112h307.072v34.112h-136.48v273.632c152.192 8.864 272.96 134.752 272.96 289.152v-11.136l150.368 150.368c12.48 12.352 20.224 29.472 20.224 48.448 0 37.696-30.56 68.224-68.256 68.224zM221.984 655.616l-126.368 126.368c-6.528 6.464-10.112 15.072-10.112 24.192 0 18.336 14.528 33.344 32.736 34.080 1.056-0.128 2.112-0.224 3.168-0.288l0.928-0.064h99.648v-184.32zM767.904 618.496c0-141.12-114.816-255.904-255.904-255.904s-255.904 114.784-255.904 255.904v221.792h511.808v-221.792zM928.384 781.984l-126.368-126.368v184.32l100.576 0.064c1.088 0.064 2.144 0.16 3.168 0.288 18.176-0.736 32.736-15.744 32.736-34.080 0-9.152-3.616-17.728-10.112-24.192z" />
<glyph unicode="&#xe934;" glyph-name="date" d="M102.56 857.44v-818.88h818.88v818.88h-818.88zM887.328 823.328v-153.536h-750.624v153.536h750.624zM136.672 72.672v562.976h750.624v-562.976h-750.624zM358.432 772.128h51.2v-51.168h-51.2v51.168zM614.368 772.128h51.168v-51.168h-51.168v51.168zM395.136 514.272c-6.112-41.504-25.856-42.24-65.6-43.68l-6.176-0.224v-28.928h67.328v-189.248h35.712v267.552h-30.496l-0.8-5.472zM596.544 433.856c-15.872 0-32.16-5.184-45.056-13.856l12.16 62.56h112.48v33.92h-139.104l-27.136-144.896h30.88l1.888 2.944c10.784 16.8 30.464 27.264 51.392 27.264 34.048 0 58.752-25.184 58.752-59.84 0-31.36-19.68-63.104-57.28-63.104-32.128 0-55.232 21.696-56.192 52.768l-0.192 6.208h-35.68l0.16-6.56c1.152-50.56 37.344-84.512 90.112-84.512 53.184 0 94.816 40.704 94.816 92.64 0 56.512-36.928 94.496-91.904 94.496z" />
<glyph unicode="&#xe935;" glyph-name="delete-user" horiz-adv-x="832" d="M599.136 262.784c-36.832 15.36-124.288 45.536-178.080 61.408-4.576 1.44-5.312 1.664-5.312 20.768 0 15.776 6.496 31.648 12.8 45.088 6.848 14.592 14.976 39.168 17.888 61.184 8.16 9.472 19.264 28.16 26.432 63.776 6.272 31.392 3.328 42.816-0.832 53.536-0.416 1.12-0.896 2.24-1.216 3.36-1.568 7.36 0.576 45.6 5.984 75.264 3.712 20.352-0.96 63.648-28.992 99.456-17.696 22.624-51.552 50.432-113.408 54.272l-33.92-0.032c-60.8-3.84-94.72-31.616-112.416-54.24-28.032-35.808-32.672-79.104-28.96-99.456 5.408-29.696 7.552-67.936 6.016-75.136-0.32-1.248-0.8-2.368-1.248-3.52-4.128-10.72-7.072-22.144-0.8-53.536 7.104-35.616 18.24-54.304 26.432-63.776 2.88-22.016 11.008-46.592 17.888-61.184 5.024-10.688 7.392-25.216 7.392-45.792 0-19.104-0.736-19.328-5.024-20.672-55.648-16.416-144.16-48.416-177.184-62.88-26.176-11.232-32.544-31.36-32.544-49.536s0-72.032 0-83.936c0-11.872 7.040-32.192 32.544-32.192 19.616 0 176.576 0 247.872 0 21.376 0 35.136 0 35.136 0h6.144c0 0 13.984 0 35.68 0 71.584 0 228.32 0 247.904 0 25.472 0 32.544 20.288 32.544 32.192s0 65.76 0 83.936-12.544 40.384-38.688 51.616zM604.032 128.64h-570.464v82.528c0 10.176 2.976 14.72 12.448 18.784 31.776 13.92 119.712 45.632 173.856 61.632 28.448 9.024 28.448 34.24 28.448 52.672 0 25.632-3.328 44.704-10.592 60.096-5.504 11.712-12.544 32.704-14.976 51.232l-1.312 9.984-6.592 7.616c-3.616 4.16-12.64 17.216-18.88 48.416-4.896 24.288-2.72 29.92-0.992 34.432 0.992 2.432 1.888 4.864 2.592 7.584l0.192 0.704 0.128 0.704c3.392 15.84-1.184 62.784-5.792 88.16-2.144 11.68 0.544 44.832 22.432 72.736 13.344 17.088 39.296 38.080 87.072 41.376l31.744 0.032c39.008-2.656 68.64-16.576 88.096-41.408 21.824-27.904 24.48-61.088 22.368-72.8-4.736-26.048-9.184-72.224-5.728-88.256l0.256-1.248 0.352-1.216c0.48-1.728 1.12-3.456 1.76-5.152l0.32-0.832v-0.064c1.888-4.896 4.064-10.432-0.8-34.784-6.272-31.168-15.328-44.288-18.944-48.48l-6.528-7.584-1.312-9.92c-2.464-18.496-9.504-39.584-15.008-51.296-7.904-16.8-16-37.024-16-59.392 0-18.464 0-43.744 29.376-52.96 52.512-15.52 139.040-45.312 174.336-60.064 13.376-5.728 18.368-15.776 18.368-20.768l-0.192-82.528zM745.472 481.12l87.744 87.744-23.776 23.744-87.712-87.744-87.744 87.744-23.744-23.744 87.744-87.744-87.744-87.744 23.744-23.744 87.744 87.744 87.744-87.744 23.744 23.744z" />
<glyph unicode="&#xe936;" glyph-name="diamond" horiz-adv-x="896" d="M878.944 618.656l-201.376 238.944h-460.8l-201.376-238.944-15.36-17.056 13.664-17.056 433.504-546.144 447.136 563.2-15.36 17.056zM834.56 618.656h-343.040l170.656 203.104 172.384-203.104zM445.44 618.656l-177.504 204.8h351.584l-174.080-204.8zM228.704 818.336l172.384-199.68h-341.344l168.96 199.68zM430.080 584.544v-469.344l-373.76 469.344h373.76zM464.224 115.2v469.344h372.064l-372.064-469.344z" />
<glyph unicode="&#xe937;" glyph-name="disk" horiz-adv-x="832" d="M419.616 364.096c46.368 0 83.936 37.568 83.936 83.904s-37.568 83.904-83.936 83.904c-46.336 0-83.936-37.536-83.936-83.904s37.568-83.904 83.936-83.904zM419.616 498.336c27.776 0 50.368-22.592 50.368-50.336s-22.592-50.336-50.368-50.336-50.368 22.592-50.368 50.336c0 27.744 22.592 50.336 50.368 50.336zM835.904 395.936c2.112 17.088 3.328 34.432 3.328 52.064 0 231.744-187.872 419.616-419.584 419.616v0c-0.032 0-0.032 0-0.032 0-159.136 0-297.568-88.608-368.704-219.136-0.064-0.16-0.16-0.288-0.256-0.448-1.344-2.464-2.56-5.024-3.84-7.52-4.928-9.536-9.6-19.232-13.824-29.184-0.64-1.504-1.184-3.040-1.792-4.576-20.032-48.992-31.168-102.56-31.168-158.752 0-231.744 187.872-419.616 419.616-419.616 208.48 0 381.376 152.096 413.984 351.36 0.896 5.376 1.632 10.784 2.304 16.192zM804.928 425.216c-0.128-2.304-0.352-4.576-0.512-6.848-0.384-5.344-0.896-10.688-1.536-15.968-0.288-2.464-0.608-4.96-0.928-7.424-0.768-5.44-1.632-10.816-2.624-16.192-0.352-1.952-0.64-3.936-1.056-5.888-1.472-7.36-3.072-14.656-4.96-21.856-0.032-0.064-0.032-0.096-0.064-0.16-1.824-7.104-3.936-14.112-6.176-21.024-0.544-1.76-1.184-3.52-1.792-5.28-1.792-5.344-3.712-10.624-5.76-15.84-0.704-1.824-1.408-3.68-2.176-5.504-2.304-5.632-4.704-11.168-7.232-16.64-0.512-1.152-0.992-2.304-1.536-3.424-3.232-6.816-6.624-13.536-10.272-20.128l-200.96 121.376c8.896 19.264 13.984 40.64 13.984 63.264 0 83.616-67.808 151.392-151.424 151.392-0.064 0-0.096-0.032-0.16-0.032s-0.128 0.032-0.192 0.032c-0.576 0-1.152-0.096-1.76-0.128-5.024-0.064-9.984-0.352-14.848-0.896-0.512-0.064-1.024-0.192-1.568-0.256-28.544-3.488-54.592-14.88-75.968-31.968l-166.56 166.592c33.44 30.688 72.32 55.488 114.976 72.96v0c22.464 9.184 45.984 16.352 70.304 21.216 0.352 0.064 0.704 0.128 1.056 0.192 5.696 1.12 11.456 2.144 17.216 3.008 1.248 0.192 2.528 0.32 3.808 0.48 4.928 0.704 9.856 1.344 14.848 1.856 2.592 0.256 5.248 0.384 7.872 0.608 3.712 0.288 7.424 0.64 11.168 0.832 6.208 0.32 12.448 0.448 18.72 0.48 0.224 0 0.48 0.032 0.736 0.032 192.896 0 353.216-142.208 381.568-327.328 2.944-19.136 4.448-38.752 4.448-58.72 0-7.648-0.288-15.264-0.736-22.784zM714.464 199.232c-4.128-4.928-8.416-9.696-12.768-14.4-0.8-0.832-1.6-1.632-2.368-2.464-4-4.192-8.064-8.32-12.224-12.32-0.928-0.896-1.856-1.76-2.816-2.656-4.256-4.032-8.576-7.936-13.024-11.744-0.8-0.704-1.6-1.408-2.4-2.112-5.056-4.288-10.24-8.448-15.488-12.48-0.16-0.096-0.32-0.224-0.48-0.352-11.36-8.64-23.232-16.672-35.552-24.064l-111.36 206.496c12.992 9.024 24.416 20.032 34.016 32.544l200.896-121.312c-7.904-11.904-16.48-23.264-25.632-34.208-0.256-0.32-0.544-0.608-0.832-0.96zM545.216 83.072c-4.96-1.728-9.952-3.36-15.008-4.896-1.92-0.576-3.904-1.12-5.856-1.664-4.608-1.312-9.28-2.528-13.952-3.68-2.208-0.512-4.448-1.056-6.688-1.536-4.544-1.024-9.12-1.92-13.728-2.784-2.304-0.416-4.608-0.864-6.912-1.248-4.736-0.8-9.472-1.44-14.24-2.080-2.208-0.256-4.384-0.576-6.56-0.832-5.344-0.576-10.688-1.056-16.096-1.408-1.664-0.096-3.296-0.256-4.96-0.352-7.136-0.384-14.336-0.608-21.568-0.608-206.208 0-375.2 162.496-385.536 366.176-0.352 6.592-0.512 13.184-0.512 19.84 0 6.528 0.192 13.024 0.48 19.488 0.256 4.928 0.672 9.824 1.088 14.72 0.128 1.44 0.192 2.88 0.32 4.288 3.808 37.856 13.152 74.112 27.104 107.968 0.032 0.192 0.096 0.352 0.128 0.512 17.408 42.144 42.080 80.576 72.448 113.696l166.592-166.592c-18.528-23.168-30.336-51.872-32.64-83.264-0.288-3.616-0.576-7.2-0.576-10.88 0-0.064 0.032-0.128 0.032-0.192s-0.032-0.128-0.032-0.16c0-83.616 67.776-151.424 151.392-151.424 20 0 39.008 3.968 56.48 10.976l111.392-206.624c-12.384-5.984-25.152-11.36-38.24-16.064-1.44-0.512-2.912-0.96-4.384-1.472zM537.088 448c0-64.8-52.704-117.472-117.504-117.472-64.736 0-117.376 52.576-117.472 117.28 0.096 64.832 52.8 117.568 117.664 117.664 64.704-0.096 117.312-52.736 117.312-117.472z" />
<glyph unicode="&#xe938;" glyph-name="diskette" d="M750.848 857.44h-648.288v-818.88h818.88v648.288l-170.592 170.592zM682.592 823.328v-238.848h-341.184v238.848h341.184zM887.328 72.672h-750.624v750.624h170.592v-272.96h409.44v272.96h20l150.592-150.624v-600.032zM580.896 755.072h34.112v-102.368h-34.112v102.368zM341.408 311.52h341.184v-34.112h-341.184v34.112zM341.408 209.152h341.184v-34.112h-341.184v34.112z" />
<glyph unicode="&#xe939;" glyph-name="display1" d="M955.552 233.664v614.144h-887.136v-614.144h426.496v-65.984l-161.792-89.6 16.512-29.856 162.336 89.92 162.336-89.92 16.512 29.856-161.792 89.6v65.984h426.496zM102.56 813.696h818.88v-545.92h-818.88v545.92zM489.408 466.336l-101.184 141.12-67.712-131.296-106.464 214.816-77.728-286.88 32.928-8.928 54.208 200 96.448-194.624 73.088 141.696 109.248-152.352 94.336 316.544-32.672 9.76zM750.848 643.104c-56.448 0-102.368-45.92-102.368-102.368s45.92-102.368 102.368-102.368c56.416 0 102.336 45.92 102.336 102.368s-45.92 102.368-102.336 102.368zM750.848 472.48c-37.632 0-68.256 30.592-68.256 68.256s30.624 68.256 68.256 68.256c37.632 0 68.224-30.592 68.224-68.256s-30.592-68.256-68.224-68.256z" />
<glyph unicode="&#xe93a;" glyph-name="display2" d="M972.608 831.84h-921.248v-34.112h68.224v-614.144h375.328v-85.312h-272.96v-34.112h580.032v34.112h-272.96v85.312h375.328v614.144h68.256v34.112zM870.272 217.696h-716.512v580.032h716.512v-580.032zM460.832 695.36h-204.704v-204.736h204.736v204.736zM426.688 524.768h-136.48v136.48h136.48v-136.48zM529.056 524.768h238.848v-34.112h-238.848v34.112zM529.056 695.36h238.848v-34.112h-238.848v34.112zM529.056 610.080h238.848v-34.112h-238.848v34.112zM256.096 422.4h511.808v-34.112h-511.808v34.112zM256.096 320.064h511.808v-34.112h-511.808v34.112z" />
<glyph unicode="&#xe93b;" glyph-name="door-lock" horiz-adv-x="864" d="M426.656 874.656c-235.52 0-426.656-191.136-426.656-426.656s191.136-426.656 426.656-426.656c235.52 0 426.656 191.136 426.656 426.656s-191.136 426.656-426.656 426.656zM426.656 55.456c-216.736 0-392.544 175.776-392.544 392.544s175.776 392.544 392.544 392.544c216.736 0 392.544-175.776 392.544-392.544s-175.776-392.544-392.544-392.544zM563.2 550.4c0 75.104-61.44 136.544-136.544 136.544s-136.544-61.44-136.544-136.544c0-51.2 29.024-97.28 71.68-119.456l-71.68-204.8h273.056l-69.984 204.8c40.96 23.904 69.984 68.256 69.984 119.456zM515.424 260.256h-177.504l54.624 158.72 10.24 27.296-25.6 13.664c-32.416 18.784-52.896 52.896-52.896 90.464 0 56.32 46.080 102.4 102.4 102.4s102.4-46.080 102.4-102.4c0-37.536-20.48-71.68-52.896-88.736l-25.6-13.664 8.544-27.296 56.32-160.416z" />
<glyph unicode="&#xe93c;" glyph-name="download" d="M362.72 533.92l-24.128-24.128 173.408-173.408 173.408 173.408-24.128 24.128-132.224-132.224v540.064h-34.112v-540.064zM597.312 771.2v-34.112h221.792v-580.032h-614.144v580.032h221.792v34.112h-255.904v-648.288h682.4v648.288z" />
<glyph unicode="&#xe93d;" glyph-name="drawer" d="M752.16 738.016h-479.008l-187.648-204.704v-375.328h852.992v375.328l-186.336 204.704zM288.16 703.904h448.928l155.264-170.592h-260.96c0-63.904-55.52-115.52-119.424-115.52s-119.424 51.616-119.424 115.52h-260.768l156.384 170.592zM904.384 192.096h-784.768v307.072h243.072c16.32-65.312 78.112-115.488 149.312-115.488s132.992 50.208 149.312 115.52h243.072v-307.072z" />
<glyph unicode="&#xe93e;" glyph-name="drop" d="M794.848 452.736c-0.672 2.656-2.016 5.056-3.776 7.040l-279.104 465.472-39.872-66.464h0.064l-240.8-401.536c-0.608-0.992-1.088-2.016-1.44-3.104-27.52-48.64-42.080-103.616-42.080-159.232 0-178.72 145.408-324.128 324.16-324.128s324.128 145.408 324.128 324.128c0 55.072-14.272 109.504-41.28 157.824zM512.032 4.896c-159.904 0-290.048 130.112-290.048 290.016 0 50.688 13.536 100.832 39.104 144.992 0.48 0.832 0.864 1.664 1.184 2.528l249.696 416.416 249.664-416.352c0.32-0.896 0.736-1.76 1.248-2.592 25.6-44.16 39.104-94.304 39.104-144.992 0-159.936-130.112-290.016-290.016-290.016z" />
<glyph unicode="&#xe93f;" glyph-name="edit" d="M904.384 772.16c0 47.104-38.208 85.28-85.312 85.28s-85.312-38.176-85.312-85.28c0-41.248 29.312-75.68 68.256-83.584v-581.76h34.112v581.76c38.944 7.904 68.256 42.336 68.256 83.584zM819.072 720.96c-28.224 0-51.168 22.944-51.168 51.168s22.944 51.168 51.168 51.168c28.224 0 51.168-22.944 51.168-51.168s-22.944-51.168-51.168-51.168zM221.984 207.456v581.76h-34.112v-581.76c-38.944-7.904-68.224-42.304-68.224-83.584 0-47.104 38.208-85.312 85.312-85.312s85.312 38.208 85.312 85.312c0 41.28-29.312 75.68-68.256 83.584zM204.928 72.672c-28.224 0-51.168 22.944-51.168 51.168s22.944 51.168 51.168 51.168 51.168-22.944 51.168-51.168-22.944-51.168-51.168-51.168zM529.056 531.584v257.6h-34.112v-257.6c-38.944-7.904-68.256-42.336-68.256-83.584s29.312-75.68 68.256-83.584v-257.6h34.112v257.6c38.944 7.904 68.256 42.336 68.256 83.584s-29.312 75.68-68.256 83.584zM512 396.832c-28.224 0-51.168 22.944-51.168 51.168s22.944 51.168 51.168 51.168 51.168-22.944 51.168-51.168-22.944-51.168-51.168-51.168z" />
<glyph unicode="&#xe940;" glyph-name="exapnd2" d="M102.56 38.56h341.184v341.248h-341.184v-341.248zM136.672 345.664h272.96v-272.992h-272.96v272.992zM750.848 448h34.112v272.96h-272.96v-34.112h216.384l-252.16-252.16 24.128-24.128 250.496 250.496zM102.56 857.44v-409.44h34.112v375.328h750.624v-750.624h-375.328v-34.112h409.44v818.88z" />
<glyph unicode="&#xe941;" glyph-name="expand1" d="M358.464 823.328v34.112h-255.904v-255.904h34.112v197.664l242.816-242.816 24.128 24.128-242.816 242.816zM665.536 857.44v-34.112h197.664l-242.816-242.816 24.128-24.128 242.816 242.816v-197.664h34.112v255.904zM379.488 339.616l-242.816-242.816v197.664h-34.112v-255.904h255.904v34.112h-197.664l242.816 242.816zM887.328 96.8l-242.816 242.816-24.128-24.128 242.816-242.816h-197.664v-34.112h255.904v255.904h-34.112z" />
<glyph unicode="&#xe942;" glyph-name="eyedropper" horiz-adv-x="832" d="M790.176 821.76c-27.296 27.296-64.864 40.96-100.704 40.96s-73.376-13.664-100.704-40.96l-122.88-122.88-69.984 69.984-23.904-23.904 81.92-81.92-370.336-368.64c-44.384-44.384-49.504-116.064-11.936-165.536l-71.68-71.68 23.904-23.904 71.68 71.68c22.176-17.056 49.504-25.6 76.8-25.6 32.416 0 64.864 11.936 88.736 37.536l370.336 368.64 76.8-76.8 23.904 23.904-66.56 66.56 122.88 122.88c56.32 54.624 56.32 143.36 1.696 199.68zM237.216 139.104c-17.056-17.056-40.96-27.296-64.864-27.296s-47.776 10.24-64.864 27.296c-35.84 35.84-35.84 93.856 0 129.696l370.336 370.336 129.696-129.696-370.336-370.336zM643.424 521.376l-153.6 153.6 122.88 122.88c20.48 20.48 47.776 32.416 76.8 32.416s56.32-11.936 76.8-32.416c20.48-20.48 32.416-47.776 32.416-76.8s-11.936-56.32-32.416-76.8l-122.88-122.88z" />
<glyph unicode="&#xe943;" glyph-name="female" horiz-adv-x="576" d="M496.64 395.104c114.336 114.336 114.336 296.96 0 411.296-56.32 56.32-131.424 85.344-204.8 85.344-75.104 0-150.176-27.296-206.496-85.344-114.336-114.336-114.336-296.96 0-411.296 52.896-52.896 119.456-80.224 187.744-83.616v-136.544h-136.544v-34.144h136.544v-136.544h34.144v136.544h136.544v34.144h-136.544v136.544c68.256 3.424 136.544 32.416 189.44 83.616zM109.216 782.496c47.776 49.504 112.64 75.104 180.896 75.104s133.12-27.296 180.896-75.104c100.704-100.704 100.704-262.816 0-363.52-47.776-47.776-112.64-73.376-180.896-73.376s-133.12 27.296-180.896 75.104c-100.704 98.976-100.704 262.816 0 361.824z" />
<glyph unicode="&#xe944;" glyph-name="file" d="M810.432 567.552l-289.888 289.888h-307.072v-818.88h597.088v528.928l-0.128 0.064zM520.544 809.184l224.704-224.704h-224.704v224.704zM247.584 72.672v750.624h238.848v-272.96h290.016v-477.696h-528.864z" />
<glyph unicode="&#xe945;" glyph-name="film" horiz-adv-x="832" d="M0 800.48v-704.928h839.232v704.928h-839.232zM134.272 129.088h-100.704v134.272h100.704v-134.272zM134.272 296.928h-100.704v134.272h100.704v-134.272zM134.272 464.768h-100.704v134.272h100.704v-134.272zM134.272 632.608h-100.704v134.272h100.704v-134.272zM671.36 576.672v-447.584h-503.52v637.792h503.52v-190.208zM805.664 129.088h-100.704v134.272h100.704v-134.272zM805.664 296.928h-100.704v134.272h100.704v-134.272zM805.664 464.768h-100.704v134.272h100.704v-134.272zM805.664 632.608h-100.704v134.272h100.704v-134.272zM335.68 583.68v-271.328l234.976 135.648-234.976 135.68zM369.248 525.536l134.272-77.536-134.272-77.536v155.040z" />
<glyph unicode="&#xe946;" glyph-name="filter" d="M614.368 55.616h-204.896v332.736l-341.152 452.032h887.392l-341.344-452.032v-332.736zM443.584 89.728h136.672v310.016l306.944 406.496h-750.368l306.752-406.496v-310.016z" />
<glyph unicode="&#xe947;" glyph-name="flag" d="M819.072 812.736l-22.688-7.904c-0.608-0.192-62.048-21.248-159.232-21.248-49.504 0-96.672 10.048-142.24 19.744-46.112 9.824-93.792 20-144.256 20-100.672 0-134.784-21.6-138.368-24.064l-7.36-5.088v-721.504h34.112v326.272c13.568 5.312 46.88 14.752 111.584 14.752 46.88 0 90.72-9.344 137.152-19.232 47.328-10.112 96.256-20.512 149.344-20.512 103.456 0 167.84 22.24 170.56 23.168l11.392 4v411.648zM784.96 425.888c-22.080-6.016-74.88-17.856-147.84-17.856-49.504 0-96.672 10.048-142.24 19.776-46.112 9.824-93.792 20-144.256 20-55.264 0-90.496-6.528-111.584-12.8v339.488c13.664 5.312 47.040 14.72 111.584 14.72 46.88 0 90.72-9.344 137.152-19.232 47.328-10.080 96.256-20.512 149.344-20.512 68.736 0 120.192 9.824 147.84 16.672v-340.224z" />
<glyph unicode="&#xe948;" glyph-name="folder" d="M853.216 712.416h-443.552v17.056c0 37.696-30.56 68.256-68.256 68.256h-170.592c-37.696 0-68.224-30.56-68.224-68.256v-562.976c0-37.696 30.56-68.256 68.224-68.256h682.4c37.696 0 68.256 30.56 68.256 68.256v477.696c0 37.696-30.56 68.256-68.256 68.256zM136.672 729.504c0 18.816 15.328 34.112 34.112 34.112h170.592c18.816 0 34.112-15.296 34.112-34.112v-51.168h477.696c18.816 0 34.112-15.296 34.112-34.112v-34.112h-750.624v119.424zM853.216 132.384h-682.4c-18.816 0-34.112 15.328-34.112 34.112v409.44h750.624v-409.44c0-18.816-15.328-34.112-34.112-34.112z" />
<glyph unicode="&#xe949;" glyph-name="gift" d="M721.408 652.736c28.448 25.024 46.496 61.568 46.496 102.336 0 75.264-61.216 136.48-136.48 136.48-51.36 0-96.128-28.544-119.424-70.56-23.296 42.016-68.064 70.56-119.424 70.56-75.264 0-136.48-61.216-136.48-136.48 0-40.768 18.048-77.312 46.496-102.336h-200.032v-648.288h818.88v648.288h-200.032zM887.328 618.624v-272.96h-358.272v272.96h21.792l82.816-144.96 29.632 16.928-73.152 128.032h297.184zM512 686.592l19.328-33.856h-38.688l19.328 33.856zM631.424 857.44c56.448 0 102.368-45.92 102.368-102.368s-45.92-102.336-102.368-102.336c-56.448 0-102.368 45.888-102.368 102.336s45.92 102.368 102.368 102.368zM290.208 755.072c0 56.448 45.92 102.368 102.368 102.368s102.368-45.92 102.368-102.368c0-56.416-45.92-102.336-102.368-102.336s-102.368 45.888-102.368 102.336zM433.856 618.624l-73.152-128 29.632-16.928 82.816 144.96h21.792v-272.96h-358.272v272.96h297.184zM136.672 311.52h358.272v-272.96h-358.272v272.96zM529.056 38.592v272.96h358.272v-272.96h-358.272z" />
<glyph unicode="&#xe94a;" glyph-name="glasses" d="M998.208 473.568h-10.208c-12.64 105.696-102.464 187.648-211.552 187.648-101.376 0-186.016-70.784-207.712-165.568l-48.832 25.504c-4.928 2.56-10.848 2.56-15.776 0l-48.832-25.504c-21.664 94.784-106.336 165.568-207.712 165.568-109.12 0-198.912-81.984-211.584-187.648h-10.208c-14.144 0-25.6-11.456-25.6-25.6 0-14.112 11.456-25.568 25.6-25.568h10.208c12.672-105.696 102.464-187.648 211.584-187.648 117.76 0 213.248 95.456 213.248 213.248 0 3.968-0.384 7.84-0.608 11.776l51.776 27.040 51.776-27.040c-0.224-3.904-0.608-7.808-0.608-11.776 0-117.76 95.488-213.248 213.248-213.248 109.088 0 198.88 81.952 211.552 187.648h10.208c14.144 0 25.6 11.456 25.6 25.6s-11.456 25.6-25.6 25.6zM247.584 268.864c-98.784 0-179.136 80.352-179.136 179.136s80.352 179.136 179.136 179.136c98.784 0 179.136-80.352 179.136-179.136s-80.352-179.136-179.136-179.136zM776.416 268.864c-98.784 0-179.136 80.352-179.136 179.136s80.352 179.104 179.136 179.104c98.784 0 179.136-80.352 179.136-179.104s-80.352-179.136-179.136-179.136z" />
<glyph unicode="&#xe94b;" glyph-name="gleam" d="M599.232 839.264l-44-357.12h194.816l-325.28-425.376 44.032 357.12h-194.816l325.28 425.376zM648.48 959.808l-443.552-580.032h225.28l-54.688-443.552 443.552 580.032h-225.28l54.688 443.552z" />
<glyph unicode="&#xe94c;" glyph-name="global" d="M512 874.496c-0.128 0-0.224 0-0.352 0-0.064 0-0.096 0-0.16 0-0.16 0-0.32-0.032-0.512-0.032-235.104-0.544-425.472-191.264-425.472-426.464 0-235.136 190.368-425.888 425.472-426.464 0.16 0 0.32-0.032 0.512-0.032 0.064 0 0.128 0 0.16 0 0.128 0 0.256 0 0.352 0 235.52 0 426.496 190.976 426.496 426.496s-190.976 426.496-426.496 426.496zM529.056 619.264c45.216 1.248 89.216 7.2 131.584 17.536 12.768-50.272 20.704-108.224 21.952-171.744h-153.536v154.208zM529.056 653.376v184.288c45.984-12.736 92.576-74.048 122.272-168.064-39.392-9.504-80.288-15.040-122.272-16.224zM494.944 838.080v-184.704c-42.336 1.184-83.552 6.816-123.264 16.48 29.952 94.592 76.96 156.128 123.264 168.192zM494.944 619.296v-154.24h-154.592c1.248 63.616 9.184 121.632 21.984 171.936 42.688-10.432 87.040-16.48 132.608-17.696zM306.016 465.056h-185.952c3.776 87.712 36.448 168.064 88.736 231.712 37.984-20.928 78.272-38.048 120.512-50.848-13.792-54.4-22.048-115.744-23.296-180.864zM306.016 430.944c1.248-65.088 9.504-126.432 23.296-180.832-42.208-12.832-82.528-29.952-120.512-50.88-52.32 63.648-84.992 144-88.736 231.712h185.952zM340.352 430.944h154.592v-154.048c-45.568-1.216-89.92-7.296-132.64-17.76-12.768 50.272-20.704 108.256-21.952 171.808zM494.944 242.816v-184.896c-46.336 12.096-93.408 73.696-123.328 168.416 39.712 9.664 80.96 15.296 123.328 16.48zM529.056 58.304v184.48c42.016-1.216 82.912-6.752 122.304-16.256-29.696-94.112-76.288-155.52-122.304-168.224zM529.056 276.896v154.048h153.536c-1.248-63.456-9.152-121.312-21.888-171.552-42.4 10.336-86.4 16.32-131.616 17.536zM716.928 430.944h187.040c-3.776-87.712-36.416-168.032-88.736-231.68-38.304 21.056-78.944 38.304-121.504 51.168 13.76 54.336 21.984 115.552 23.232 180.48zM716.928 465.056c-1.248 65.056-9.504 126.272-23.264 180.672 42.56 12.864 83.168 30.080 121.44 51.136 52.352-63.648 85.056-144.032 88.832-231.808h-187.040zM791.616 722.912c-33.952-18.048-69.76-32.992-107.2-44.32-19.936 64.16-47.936 116.544-81.056 150.944 72.64-17.44 137.504-55.008 188.256-106.624zM419.296 829.216c-32.928-34.336-60.8-86.464-80.672-150.304-37.056 11.296-72.576 26.080-106.208 44 50.4 51.264 114.784 88.768 186.88 106.304zM232.288 173.216c33.664 17.952 69.216 32.768 106.304 44.064 19.872-63.904 47.744-116.128 80.704-150.464-72.16 17.568-136.576 55.072-187.008 106.432zM603.36 66.496c33.152 34.4 61.152 86.784 81.12 151.072 37.44-11.36 73.28-26.24 107.232-44.384-50.752-51.648-115.648-89.312-188.352-106.688z" />
<glyph unicode="&#xe94d;" glyph-name="graph" d="M938.496 448c0 229.792-181.824 417.088-409.472 426.080v0.448h-34.112v-0.448c-227.616-8.96-409.44-196.256-409.44-426.080 0-235.584 190.944-426.496 426.496-426.496 82.752 0 159.904 23.648 225.344 64.416l0.224-0.32 12.704 8.64c0.16 0.096 0.288 0.192 0.448 0.288l15.104 10.24-0.224 0.32c104.928 77.696 172.96 202.336 172.96 342.944zM870.976 606.176l-341.92-133.216v366.976c152.768-6.592 283.136-100.896 341.92-233.76zM512 55.616c-216.352 0-392.384 176-392.384 392.384 0 210.624 166.848 382.976 375.328 391.936v-397.184l223.136-328.48c-59.936-37.12-130.528-58.656-206.080-58.656zM746.272 133.408l-208.16 306.464 345.216 134.528c13.568-39.68 21.024-82.176 21.024-126.4 0-128.608-62.208-242.976-158.112-314.592z" />
<glyph unicode="&#xe94e;" glyph-name="graph1" d="M895.84 925.664c-47.040 0-85.312-38.24-85.312-85.28 0-29.632 15.232-55.744 38.24-71.040l-161.28-425.088c-4.48 0.736-8.96 1.376-13.6 1.376-20.448 0-38.976-7.52-53.664-19.552l-161.376 133.312c6.368 11.936 10.304 25.344 10.304 39.808 0 47.040-38.272 85.312-85.312 85.312s-85.312-38.272-85.312-85.312c0-25.408 11.392-48.032 29.088-63.648l-171.968-299.52c-8.672 2.976-17.792 4.96-27.488 4.96-47.040 0-85.312-38.24-85.312-85.28 0-47.072 38.272-85.344 85.312-85.344s85.28 38.272 85.28 85.344c0 25.088-11.072 47.424-28.384 63.040l172.16 299.84c8.416-2.784 17.248-4.672 26.592-4.672 20.256 0 38.592 7.392 53.248 19.2l161.568-133.44c-6.208-11.84-10.048-25.056-10.048-39.296 0-47.040 38.272-85.312 85.312-85.312s85.312 38.272 85.312 85.312c0 30.272-15.968 56.736-39.776 71.904l161.024 424.416c5.024-0.928 10.144-1.536 15.424-1.536 47.040 0 85.312 38.272 85.312 85.344s-38.272 85.28-85.312 85.28zM128.16 4.448c-28.224 0-51.2 22.976-51.2 51.232 0 28.192 22.976 51.136 51.2 51.136s51.168-22.944 51.168-51.136c0-28.256-22.944-51.232-51.168-51.232zM383.84 448c-28.224 0-51.168 22.944-51.168 51.168s22.944 51.168 51.168 51.168 51.168-22.944 51.168-51.168-22.944-51.168-51.168-51.168zM673.888 209.152c-28.224 0-51.168 22.944-51.168 51.168s22.944 51.168 51.168 51.168 51.168-22.944 51.168-51.168c0-28.224-22.944-51.168-51.168-51.168zM895.84 789.184c-28.224 0-51.168 22.976-51.168 51.2 0 28.192 22.944 51.136 51.168 51.136s51.168-22.944 51.168-51.136c0-28.256-22.944-51.2-51.168-51.2z" />
<glyph unicode="&#xe94f;" glyph-name="graph2" d="M102.56 857.44v-818.88h818.88v818.88h-818.88zM887.328 823.328v-147.008l-224.736-324.192-154.080 121.76-171.392-239.968-101.184 67.456-99.232-115.68v637.664h750.624zM136.672 72.672v60.576l105.472 122.944 103.52-69.024 169.792 237.696 154.464-122.048 217.376 313.6v-543.744h-750.624z" />
<glyph unicode="&#xe950;" glyph-name="graph3" d="M904.384 499.168v-409.44h-170.592v750.624h-34.112v-750.624h-170.592v511.808h-34.112v-511.808h-170.592v204.736h-34.112v-204.736h-170.464v307.072h-34.112v-307.072h-0.16v-34.112h852.992v443.552z" />
<glyph unicode="&#xe951;" glyph-name="gym" d="M1024 465.056h-100.704v204.8h-102.4v85.344h-136.544v-290.144h-341.344v290.144h-136.544v-85.344h-102.4v-204.8h-104.096v-34.144h104.096v-204.8h102.4v-85.344h136.544v290.144h341.344v-290.144h136.544v85.344h102.4v204.8h100.704v34.144zM138.24 260.256v375.456h68.256v-375.456h-68.256zM308.896 174.944h-68.256v546.144h68.256v-546.144zM786.784 174.944h-68.256v546.144h68.256v-546.144zM889.184 260.256h-68.256v375.456h68.256v-375.456z" />
<glyph unicode="&#xe952;" glyph-name="hammer" horiz-adv-x="928" d="M911.36 494.080l-23.904-25.6-399.36 399.36 25.6 23.904-23.904 23.904-25.6-23.904-257.696-259.424 23.904-23.904 17.056 17.056 187.744-187.744-435.2-433.504 23.904-23.904 435.2 435.2 187.744-187.744-17.056-17.056 23.904-23.904 283.296 283.296-25.6 23.904zM669.024 251.744l-59.744 59.744 192.864 194.56 59.744-59.744-192.864-194.56zM585.376 337.056l-228.704 228.704 192.864 192.864 228.704-228.704-192.864-192.864zM464.224 843.936l59.744-59.744-191.136-194.56-59.744 59.744 191.136 194.56z" />
<glyph unicode="&#xe953;" glyph-name="headphones" horiz-adv-x="864" d="M853.344 499.2c0 235.52-191.136 426.656-426.656 426.656s-426.656-191.136-426.656-426.656v-174.080h1.696c0-5.12 0-10.24 0-13.664 0-112.64 90.464-204.8 203.104-204.8v0 409.6h-1.696c-71.68 0-133.12-35.84-168.96-92.16v75.104c0 216.736 175.776 392.544 392.544 392.544s392.544-175.776 392.544-392.544v-75.104c-35.84 54.624-98.976 92.16-168.96 92.16h-1.696v-409.6h1.696c17.056 0 32.416 1.696 49.504 6.816-51.2-49.504-114.336-83.616-186.016-100.704v59.744h-172.384v-102.4h170.656v6.816c109.216 22.176 203.104 85.344 264.544 174.080 46.080 37.536 76.8 95.584 76.8 160.416 0 5.12 0 10.24 0 13.664v0 174.080zM170.656 478.72v-334.496c-76.8 15.36-136.544 85.344-136.544 167.264s59.744 151.904 136.544 167.264zM477.856 4.256h-102.4v34.144h102.4v-34.144zM682.656 144.224v334.496c78.496-15.36 136.544-85.344 136.544-167.264s-58.016-151.904-136.544-167.264z" />
<glyph unicode="&#xe954;" glyph-name="helm" horiz-adv-x="992" d="M989.856 430.944v34.144h-119.456c-3.424 92.16-39.264 174.080-97.28 238.944l85.344 85.344-23.904 23.904-85.344-85.344c-63.136 58.016-145.056 93.856-235.52 97.28v117.76h-34.144v-117.76c-90.464-3.424-172.384-40.96-235.52-97.28l-85.344 85.344-23.904-23.904 85.344-85.344c-59.744-64.864-97.28-146.784-100.704-238.944h-119.456v-34.144h119.456c5.12-90.464 40.96-172.384 97.28-233.824l-85.344-85.344 23.904-23.904 85.344 85.344c63.136-58.016 145.056-93.856 235.52-97.28v-122.88h34.144v121.184c90.464 3.424 174.080 40.96 235.52 97.28l85.344-85.344 23.904 23.904-85.344 85.344c56.32 63.136 93.856 143.36 97.28 233.824h122.88zM836.256 465.056h-204.8c-3.424 25.6-13.664 49.504-29.024 68.256l145.056 145.056c51.2-56.32 83.616-131.424 88.736-213.344zM494.944 345.6c-56.32 0-102.4 46.080-102.4 102.4s46.080 102.4 102.4 102.4c56.32 0 102.4-46.080 102.4-102.4s-46.080-102.4-102.4-102.4zM723.616 702.304l-146.784-146.784c-18.784 13.664-40.96 23.904-64.864 27.296v208.224c81.92-5.12 155.296-37.536 211.616-88.736zM477.856 791.040v-206.496c-23.904-3.424-46.080-11.936-64.864-27.296l-146.784 146.784c56.32 49.504 129.696 81.92 211.616 87.040zM242.336 678.4l145.056-145.056c-15.36-18.784-25.6-42.656-29.024-68.256h-204.8c5.12 81.92 37.536 157.024 88.736 213.344zM155.296 430.944h204.8c3.424-23.904 11.936-46.080 27.296-64.864l-143.36-143.36c-52.896 54.624-85.344 128-88.736 208.224zM266.24 197.12l143.36 143.36c18.784-15.36 42.656-25.6 68.256-29.024v-203.104c-81.92 5.12-155.296 37.536-211.616 88.736zM512 110.080v203.104c25.6 3.424 49.504 13.664 68.256 29.024l143.36-143.36c-56.32-52.896-129.696-85.344-211.616-88.736zM747.52 221.024l-143.36 143.36c13.664 18.784 23.904 40.96 27.296 64.864h204.8c-5.12-78.496-37.536-151.904-88.736-208.224z" />
<glyph unicode="&#xe955;" glyph-name="help1" d="M512 874.496c-235.552 0-426.496-190.944-426.496-426.496s190.944-426.496 426.496-426.496 426.496 190.944 426.496 426.496c0 235.552-190.944 426.496-426.496 426.496zM512 55.616c-216.352 0-392.384 176-392.384 392.384s176 392.384 392.384 392.384 392.384-176 392.384-392.384c0-216.352-176-392.384-392.384-392.384zM510.56 671.584c-86.592 0-134.944-53.504-135.552-138.304h37.632c-1.184 61.504 31.040 106.624 96.16 106.624 46.56 0 85.376-32.832 85.376-80.608 0-31.040-16.736-56.128-38.816-77.024-45.376-42.112-58.080-61.92-60.384-119.616h38.112c2.24 52.32 1.088 51.264 46.752 96.928 30.464 28.672 51.936 57.344 51.936 101.536 0 69.248-54.944 110.464-121.184 110.464zM512 294.432c-18.816 0-34.112-15.264-34.112-34.112s15.296-34.112 34.112-34.112 34.112 15.264 34.112 34.112c0 18.816-15.264 34.112-34.112 34.112z" />
<glyph unicode="&#xe956;" glyph-name="help2" d="M512 857.44c-226.112 0-409.44-183.296-409.44-409.44s183.328-409.408 409.44-409.44c226.144 0.032 409.44 183.328 409.44 409.44s-183.328 409.44-409.44 409.44zM511.968 260.352c-103.456 0-187.616 84.192-187.616 187.648s84.192 187.648 187.648 187.648h0.032c103.456 0 187.616-84.192 187.616-187.648s-84.192-187.648-187.68-187.648zM716.64 533.536l128.896 86.176c26.624-51.488 41.76-109.856 41.76-171.712 0-61.088-14.752-118.72-40.736-169.76l-129.12 86.368c10.464 25.76 16.352 53.856 16.352 83.392 0 30.336-6.112 59.2-17.12 85.536zM828.48 649.344l-127.68-85.376c-18.56 30.144-44.064 55.456-74.4 73.76l85.408 127.712c46.912-29.632 86.784-69.344 116.64-116.128zM682.112 782.4l-86.336-129.088c-25.856 10.56-54.080 16.48-83.744 16.48h-0.032c-29.664 0-57.888-5.92-83.744-16.48l-86.336 129.088c51.104 26.112 108.864 40.928 170.080 40.928s119.008-14.816 170.112-40.928zM312.192 765.504l85.44-127.744c-30.4-18.368-55.936-43.744-74.528-73.952l-127.712 85.408c29.888 46.848 69.824 86.624 116.8 116.288zM178.368 619.552l128.928-86.208c-10.976-26.304-17.056-55.104-17.056-85.344 0-29.44 5.856-57.504 16.288-83.168l-129.152-86.4c-25.92 50.976-40.64 108.576-40.64 169.568 0 61.792 15.104 120.096 41.696 171.552zM194.208 248.672l127.744 85.408c18.432-30.688 44.064-56.512 74.592-75.2l-85.408-127.68c-47.136 29.984-87.168 70.176-116.928 117.472zM340.8 114.176l86.24 128.96c26.176-10.88 54.816-16.928 84.928-16.928 0.032 0 0.032 0 0.032 0 30.112 0 58.816 6.048 84.992 16.928l86.24-128.96c-51.392-26.464-109.568-41.504-171.232-41.504s-119.84 15.040-171.2 41.504zM712.896 131.232l-85.408 127.712c30.464 18.656 56.032 44.384 74.464 75.008l127.744-85.44c-29.76-47.2-69.728-87.328-116.8-117.28z" />
<glyph unicode="&#xe957;" glyph-name="home" d="M512 874.496l-170.592-170.592v68.256h-136.48v-204.736l-120.16-120.16 24.128-24.128 403.104 403.104 403.104-403.104 24.128 24.128-427.232 427.232zM239.040 738.016h68.224v-68.224l-68.256-68.256v136.48zM204.928 430.944v-409.44h238.848v238.848h136.48v-238.848h238.848v409.44l-307.072 307.072-307.072-307.072zM784.96 55.616h-170.592v238.848h-204.736v-238.848h-170.592v361.184l272.96 272.96 272.96-272.96v-361.184z" />
<glyph unicode="&#xe958;" glyph-name="hourglass" horiz-adv-x="608" d="M510.304 637.44v203.104h87.040v34.144h-597.344v-34.144h85.344v-203.104c0-56.32 22.176-124.576 172.384-197.984-128-61.44-172.384-116.064-172.384-206.496v-177.504h-85.344v-34.144h597.344v34.144h-87.040v177.504c0 90.464-44.384 145.056-172.384 208.224 150.176 71.68 172.384 139.936 172.384 196.256zM476.16 232.96v-177.504h-356.704v177.504c0 71.68 29.024 121.184 179.2 189.44 148.48-69.984 177.504-119.456 177.504-189.44zM296.96 458.24c-157.024 71.68-177.504 131.424-177.504 179.2v203.104h356.704v-203.104c0-47.776-22.176-107.52-179.2-179.2z" />
<glyph unicode="&#xe959;" glyph-name="id" horiz-adv-x="864" d="M537.12 565.504h234.944v-33.568h-234.944v33.568zM537.088 364.064h234.976v-33.568h-234.976v33.568zM537.088 464.8h167.584v-33.568h-167.584v33.568zM503.52 766.912v100.704h-134.272v-100.704h-369.248v-738.528h872.8v738.528h-369.248zM839.232 733.344v-67.136h-335.68v67.136h335.68zM402.816 834.048h67.136v-167.84h-67.136v167.84zM33.568 733.344h335.68v-67.136h-335.68v67.136zM33.568 61.952v570.656h805.664v-570.656h-805.664zM494.816 211.136c-24.224 10.080-81.44 29.952-116.864 40.416-3.008 0.96-3.456 1.12-3.456 13.696 0 10.368 4.256 20.8 8.416 29.664 4.48 9.632 9.856 25.792 11.776 40.288 5.376 6.272 12.672 18.56 17.44 42.016 4.096 20.64 2.208 28.192-0.544 35.264-0.288 0.736-0.576 1.472-0.832 2.208-1.056 4.864 0.384 30.016 3.936 49.568 2.432 13.376-0.608 41.888-19.072 65.472-11.648 14.912-33.92 33.184-74.688 35.744l-22.368-0.032c-40.032-2.528-62.368-20.832-73.984-35.712-18.464-23.584-21.536-52.096-19.104-65.472 3.584-19.552 4.992-44.704 3.968-49.472-0.192-0.832-0.512-1.568-0.832-2.304-2.72-7.072-4.672-14.592-0.512-35.264 4.672-23.456 12-35.744 17.408-42.016 1.856-14.496 7.232-30.656 11.776-40.288 3.296-7.040 4.896-16.608 4.896-30.144 0-12.576-0.48-12.736-3.296-13.632-36.608-10.816-94.944-31.872-116.672-41.376-17.248-7.392-21.44-20.672-21.44-32.64 0-3.36 0-8.576 0-14.496h33.568v14.496c0 0.544 0.032 0.96 0.064 1.28 0.288 0.16 0.672 0.352 1.248 0.576 20.64 9.056 77.856 29.664 113.376 40.16 26.72 8.48 26.72 33.568 26.72 45.632 0 18.592-2.56 32.704-8.064 44.448-3.36 7.168-7.52 19.872-8.864 30.272l-1.312 10.016-6.592 7.648c-1.024 1.152-6.144 7.808-9.888 26.656-2.56 12.704-1.632 15.072-1.12 16.448 0.896 2.176 1.632 4.32 2.336 7.36 2.944 13.568-0.96 47.456-3.712 62.56-0.928 4.96 0.384 23.36 12.48 38.848 10.624 13.6 27.008 21.28 48.704 22.816l20.128 0.032c22.112-1.568 38.688-9.248 49.312-22.848 12.128-15.488 13.408-33.888 12.512-38.816-2.752-15.104-6.656-48.96-3.744-62.624l0.288-1.312 0.352-1.28c0.448-1.472 0.96-2.88 1.664-4.768 0.544-1.408 1.472-3.744-1.056-16.416-3.808-18.88-8.96-25.6-9.984-26.752l-6.528-7.584-1.312-9.92c-1.376-10.432-5.504-23.2-8.864-30.368-5.44-11.52-11.648-26.912-11.648-44 0-12.064 0-37.184 27.552-45.888 33.536-9.888 89.76-29.312 113.12-39.072 3.552-1.504 4.832-3.36 5.184-4.064v-13.568h33.568c0 5.888 0 11.136 0 14.496 0 11.968-8.288 26.592-25.504 34.016z" />
<glyph unicode="&#xe95a;" glyph-name="info" d="M514.144 603.008c28.256 0 51.168 22.912 51.168 51.168 0 28.288-22.912 51.136-51.168 51.136s-51.168-22.848-51.168-51.136c0-28.256 22.912-51.168 51.168-51.168zM548.896 534.752v34.112h-102.368v-34.112h34.112v-290.016h-34.112v-34.112h136.48v34.112h-34.112zM512 874.496c-235.552 0-426.496-190.976-426.496-426.496 0-235.584 190.976-426.496 426.496-426.496s426.496 190.912 426.496 426.496c0 235.552-190.976 426.496-426.496 426.496zM512 55.616c-216.352 0-392.384 176.032-392.384 392.384s176 392.384 392.384 392.384c216.352 0 392.384-176.032 392.384-392.384s-176-392.384-392.384-392.384z" />
<glyph unicode="&#xe95b;" glyph-name="joy" horiz-adv-x="928" d="M696.32 552.8c-64.096 0-131.040-57.92-209.568-66.144v33.472c0.448 82.208 62.048 166.944 164.992 166.944h19.52c94.72 0 192.096 74.976 202.496 201.408h-33.6c-10.048-105.472-90.592-167.84-168.896-167.84h-19.52c-121.792 0-197.408-103.072-198.496-199.328h-0.064v-1.28c0-0.256-0.032-0.544-0.032-0.832h0.032v-32.576c-78.528 8.224-145.472 66.144-209.536 66.144-68.992 0-243.648-136.864-243.648-405.12 0-135.84 91.68-140.128 103.36-140.128 0.8 0 1.216 0 1.216 0 56.928 0 109.504 27.36 175.2 93.088s91.968 82.944 139.584 82.944c18.976 0 41.792 0 49.28 0 1.568 0 2.72 0 2.72 0 7.456 0 30.304 0 49.28 0 47.648 0 73.888-17.248 139.584-82.944s118.24-93.088 175.2-93.088c0 0 0.416 0 1.216 0 11.648 0 103.328 4.288 103.328 140.128 0 268.256-174.624 405.12-243.616 405.12zM836.96 41.056l-0.8 0.032h-0.8c-47.808 0-93.088 24.896-151.456 83.232-64.48 64.48-99.424 92.768-163.328 92.768h-101.248c-63.904 0-98.848-28.288-163.328-92.768-58.368-58.336-103.648-83.232-151.456-83.232l0.064 0.096-1.28-0.096c-16.384 0-69.792 7.68-69.792 106.56 0 256.32 166.944 371.552 210.080 371.552 25.344 0 55.392-13.504 87.232-27.808 40.608-18.24 86.624-38.912 139.392-39.328 52.192 0.416 98.208 21.12 138.848 39.328 31.84 14.304 61.888 27.808 87.232 27.808 43.072 0 210.048-115.232 210.048-371.552 0-98.912-53.408-106.56-69.408-106.592zM268.672 418.528h-33.568v-67.136h-67.136v-33.568h67.136v-67.136h33.568v67.136h67.136v33.568h-67.136zM621.024 385.056c-27.808 0-50.368-22.528-50.368-50.368 0-27.808 22.56-50.368 50.368-50.368s50.336 22.56 50.336 50.368c0 27.84-22.528 50.368-50.336 50.368zM621.024 317.92c-9.248 0-16.768 7.552-16.768 16.768 0 9.28 7.552 16.8 16.768 16.8s16.768-7.52 16.768-16.8c0-9.248-7.52-16.768-16.768-16.768zM755.296 351.488c-27.808 0-50.368-22.528-50.368-50.368s22.56-50.368 50.368-50.368c27.84 0 50.336 22.56 50.336 50.368 0 27.84-22.528 50.368-50.336 50.368zM755.296 284.352c-9.248 0-16.8 7.552-16.8 16.8s7.552 16.768 16.8 16.768c9.28 0 16.768-7.52 16.768-16.768s-7.488-16.8-16.768-16.8z" />
<glyph unicode="&#xe95c;" glyph-name="junk" d="M638.752 482.752l-24.128 24.128-102.592-102.624-102.624 102.624-24.128-24.128 102.624-102.624-102.944-102.912 24.128-24.128 102.976 102.912 102.944-102.912 24.128 24.128-102.944 102.912zM938.496 737.984h-852.992v-34.112h25.088l9.056-68.256c0-27.232 16.032-50.528 39.072-61.472l60.16-351.008c6.304-35.712 29.184-65.152 65.152-65.152h455.968c35.936 0 57.792 28.896 65.152 65.152l60.192 351.008c23.040 10.976 39.072 34.24 39.072 61.472l9.056 68.256h25.088v34.112zM771.584 229.44c-2.944-14.176-10.912-37.312-31.616-37.312h-455.968c-23.232 0-30.016 28.288-31.52 36.8l-58.016 338.464h635.040l-57.952-337.92zM870.56 640.096l-0.288-2.24v-2.24c0-18.816-15.328-34.112-34.112-34.112h-648.288c-18.816 0-34.112 15.296-34.112 34.112v2.24l-0.288 2.24-8.448 63.776h734.016l-8.448-63.776z" />
<glyph unicode="&#xe95d;" glyph-name="key" horiz-adv-x="480" d="M218.208 766.912h33.568v-134.272h-33.568v134.272zM469.952 666.208c0 129.792-105.216 234.976-234.976 234.976-129.792 0-234.976-105.184-234.976-234.976 0-99.936 62.528-185.12 150.528-219.072v-452.288h167.84v116.96l50.88 50.88-50.88 50.88v66.080l84.448 84.448-83.136 83.136c87.84 34.016 150.272 119.136 150.272 218.976zM307.552 478.528l-22.752-8.8v-35.104l70.496-70.56-70.528-70.528v-93.888l36.96-36.992-36.96-36.992v-97.312h-100.704v441.76l-21.504 8.288c-78.368 30.24-129.024 103.904-129.024 187.744 0 111.072 90.336 201.408 201.408 201.408 111.040 0 201.408-90.336 201.408-201.408 0-83.712-50.592-157.376-128.832-187.68z" />
<glyph unicode="&#xe95e;" glyph-name="keypad" d="M221.984 260.32c-56.512 0-102.368-45.824-102.368-102.336s45.824-102.368 102.368-102.368c56.512 0 102.368 45.824 102.368 102.368s-45.856 102.336-102.368 102.336zM221.984 89.76c-37.632 0-68.224 30.592-68.224 68.256s30.592 68.224 68.256 68.224c37.632 0 68.256-30.592 68.256-68.224s-30.592-68.256-68.256-68.256zM221.984 840.384c-56.512 0-102.368-45.824-102.368-102.336s45.824-102.368 102.368-102.368c56.512 0 102.368 45.824 102.368 102.368s-45.856 102.336-102.368 102.336zM221.984 669.792c-37.632 0-68.224 30.592-68.224 68.256s30.592 68.224 68.256 68.224c37.632 0 68.256-30.592 68.256-68.224s-30.592-68.256-68.256-68.256zM221.984 551.072c-56.512 0-102.368-45.824-102.368-102.336s45.824-102.368 102.368-102.368c56.512 0 102.368 45.824 102.368 102.368s-45.856 102.336-102.368 102.336zM221.984 380.48c-37.632 0-68.224 30.624-68.224 68.256s30.592 68.224 68.256 68.224c37.632 0 68.256-30.592 68.256-68.224s-30.592-68.256-68.256-68.256zM512 260.32c-56.544 0-102.368-45.824-102.368-102.336s45.824-102.368 102.368-102.368c56.512 0 102.368 45.824 102.368 102.368s-45.856 102.336-102.368 102.336zM512 89.76c-37.632 0-68.256 30.592-68.256 68.256s30.592 68.224 68.256 68.224c37.632 0 68.256-30.592 68.256-68.224s-30.592-68.256-68.256-68.256zM512 840.384c-56.544 0-102.368-45.824-102.368-102.336s45.824-102.368 102.368-102.368c56.512 0 102.368 45.824 102.368 102.368s-45.856 102.336-102.368 102.336zM512 669.792c-37.632 0-68.256 30.592-68.256 68.256s30.592 68.224 68.256 68.224c37.632 0 68.256-30.592 68.256-68.224s-30.592-68.256-68.256-68.256zM512 551.072c-56.544 0-102.368-45.824-102.368-102.336s45.824-102.368 102.368-102.368c56.512 0 102.368 45.824 102.368 102.368s-45.856 102.336-102.368 102.336zM512 380.48c-37.632 0-68.256 30.624-68.256 68.256s30.592 68.224 68.256 68.224c37.632 0 68.256-30.592 68.256-68.224s-30.592-68.256-68.256-68.256zM802.016 260.32c-56.544 0-102.368-45.824-102.368-102.336s45.824-102.368 102.368-102.368c56.512 0 102.368 45.824 102.368 102.368s-45.856 102.336-102.368 102.336zM802.016 89.76c-37.632 0-68.256 30.592-68.256 68.256s30.592 68.224 68.256 68.224c37.632 0 68.256-30.592 68.256-68.224s-30.592-68.256-68.256-68.256zM802.016 635.68c56.512 0 102.368 45.824 102.368 102.368s-45.856 102.336-102.368 102.336c-56.544 0-102.368-45.824-102.368-102.336s45.824-102.368 102.368-102.368zM802.016 806.24c37.632 0 68.256-30.592 68.256-68.224s-30.592-68.256-68.256-68.256c-37.632 0-68.256 30.592-68.256 68.256s30.592 68.224 68.256 68.224zM802.016 551.072c-56.544 0-102.368-45.824-102.368-102.336s45.824-102.368 102.368-102.368c56.512 0 102.368 45.824 102.368 102.368s-45.856 102.336-102.368 102.336zM802.016 380.48c-37.632 0-68.256 30.624-68.256 68.256s30.592 68.224 68.256 68.224c37.632 0 68.256-30.592 68.256-68.224s-30.592-68.256-68.256-68.256z" />
<glyph unicode="&#xe95f;" glyph-name="leaf" horiz-adv-x="544" d="M546.144 425.824c0 228.704-153.6 395.936-273.056 534.176-119.456-138.24-273.056-305.504-273.056-534.176 0-215.040 158.72-271.36 256-302.080v-187.744h34.144v187.744c97.28 30.72 256 87.040 256 302.080zM290.144 159.584v133.12l107.52 107.52-23.904 23.904-83.616-83.616v346.464h-34.144v-163.84l-88.736 88.736-23.904-23.904 112.64-112.64v-315.744c-93.856 30.72-221.856 83.616-221.856 266.24 0 199.68 124.576 349.856 238.944 481.28 114.336-131.424 238.944-281.6 238.944-481.28 0-182.624-128-235.52-221.856-266.24z" />
<glyph unicode="&#xe960;" glyph-name="left-arrow" horiz-adv-x="832" d="M419.648 867.616c-231.776 0-419.648-187.872-419.648-419.616s187.872-419.616 419.648-419.616c231.744 0 419.584 187.872 419.584 419.616s-187.84 419.616-419.584 419.616zM419.648 61.952c-212.896 0-386.080 173.184-386.080 386.048s173.184 386.016 386.080 386.016c212.864 0 386.016-173.184 386.016-386.016s-173.152-386.048-386.016-386.048zM394.176 628.384l-23.744 23.744-204.128-204.128 204.128-204.128 23.744 23.744-163.616 163.616h407.232v33.568h-407.232z" />
<glyph unicode="&#xe961;" glyph-name="less" d="M512 874.496c-235.584 0-426.496-190.912-426.496-426.496s190.912-426.496 426.496-426.496c235.584 0 426.496 190.912 426.496 426.496s-190.912 426.496-426.496 426.496zM512 55.616c-216.352 0-392.384 176.032-392.384 392.384s176.032 392.384 392.384 392.384c216.352 0 392.384-176.032 392.384-392.384s-176.032-392.384-392.384-392.384zM291.36 465.056h442.432v-34.112h-442.432v34.112z" />
<glyph unicode="&#xe962;" glyph-name="light" d="M853.216 601.824c0 188.416-152.736 341.184-341.216 341.184s-341.184-152.768-341.184-341.184c0-110.976 53.152-209.344 135.2-271.584l-0.16-0.096c1.568-1.056 3.168-2.272 4.864-3.584 0.16-0.128 0.32-0.256 0.48-0.352 26.4-20.832 64.352-69.536 64.352-133.792v-239.424h272.96v239.424c0 68.256 39.424 117.216 68.256 136.672l-0.096 0.096c82.848 62.208 136.576 161.056 136.576 272.64zM409.632-12.896v102.944h204.736v-102.944h-204.736zM512 567.712c-18.816 0-34.112 15.296-34.112 34.112s15.328 34.144 34.112 34.144 34.112-15.328 34.112-34.144c0-18.816-15.328-34.112-34.112-34.112zM696.16 356.448c-0.448-0.352-0.896-0.704-1.344-1.056-37.76-26.848-80.448-84.672-80.448-162.976v-68.256h-85.312v411.84c29.376 7.616 51.168 34.080 51.168 65.792 0 37.696-30.56 68.256-68.256 68.256s-68.256-30.56-68.256-68.256c0-31.744 21.792-58.208 51.168-65.792v-411.84h-85.312v68.256c0 73.472-41.664 132.416-77.024 160.32-0.256 0.224-0.608 0.48-0.928 0.736-1.12 0.864-2.208 1.696-3.264 2.496-0.576 0.512-1.152 0.992-1.792 1.44-77.344 58.688-121.728 147.776-121.728 244.416 0 169.312 137.76 307.072 307.072 307.072s307.072-137.76 307.072-307.072c0-97.28-44.8-186.688-122.944-245.344z" />
<glyph unicode="&#xe963;" glyph-name="like" d="M700.352 796.32c112.672 0 204.032-91.36 204.032-204.032 0-57.888-24.128-110.048-62.848-147.2l-329.504-331.168-335.488 337.152c-35.2 36.672-56.896 86.368-56.896 141.216 0 112.704 91.36 204.032 204.032 204.032 84.864 0 157.6-51.84 188.352-125.568 30.752 73.728 103.488 125.568 188.352 125.568zM700.352 830.432c-75.040 0-143.968-34.848-188.352-92.288-44.352 57.44-113.28 92.288-188.352 92.288-131.328 0-238.144-106.848-238.144-238.144 0-61.696 23.584-120.256 66.4-164.864l360.096-361.888 353.696 355.456c46.72 44.864 72.8 105.856 72.8 171.264 0 131.328-106.848 238.144-238.144 238.144v0z" />
<glyph unicode="&#xe964;" glyph-name="like2" horiz-adv-x="864" d="M872.8 459.584c0 41.216-32.64 73.024-75.968 73.024h-273.152c17.44 40.48 48.768 125.408 48.768 213.088 0 100.096-50.208 121.088-92.352 121.088-26.112 0-63.872-19.808-63.872-55.584 0-15.104-2.4-149.472-84.448-218.304-87.424-73.344-112.288-92.512-160.16-92.512-55.872 0-155.104-1.216-155.104-1.216l-16.544-0.224v-390.592h182.784c11.872 0 47.456-15.872 78.912-29.824 51.904-23.104 110.688-49.312 150.272-49.312l264 0.096c42.976 0 77.952 33.792 77.952 75.328 0 16.928-6.048 32.384-15.808 44.96 31.488 9.024 54.752 37.76 54.752 72.128 0 17.248-6.080 32.992-15.872 45.728 30.976 9.888 53.664 38.624 53.664 72.864 0 17.216-5.888 32.992-15.52 45.792 32.992 8.256 57.632 37.92 57.632 73.44zM796.832 417.216h-58.304v-33.568h15.264c23.872 0 43.296-19.424 43.296-43.296s-19.456-43.296-43.296-43.296h-48.832v-33.568h12.608c23.008 0 41.728-18.72 41.728-41.76s-18.72-41.76-41.728-41.76h-46.176v-33.568h4.576c24.448 0 44.384-18.752 44.384-41.76 0-23.040-19.936-41.76-44.384-41.76h-42.88v-0.096h-221.12c-32.448 0-90.208 25.728-136.64 46.4-45.6 20.288-74.432 32.736-92.544 32.736h-149.216v323.872c30.56 0.352 96.416 1.024 138.080 1.024 62.080 0 94.688 27.328 181.728 100.352 91.776 76.992 96.448 216.768 96.448 244.032 0 13.696 21.024 22.016 30.304 22.016 17.568 0 58.784 0 58.784-87.52 0-110.592-55.84-221.12-56.384-222.24l-12.48-24.416h205.632c0.576-0.416 0.96 0 0.96 0h120.224c24.544 0 42.4-17.024 42.4-39.456 0-23.36-19.008-42.368-42.4-42.368z" />
<glyph unicode="&#xe965;" glyph-name="link" d="M561.088 294.624c-41.632 0-83.264 15.84-114.944 47.52l24.128 24.128c50.112-50.112 131.584-50.080 181.696 0l214.88 214.912c50.080 50.080 50.080 131.552 0 181.664l-40.032 40c-50.080 50.080-131.584 50.080-181.664 0l-151.648-151.648-24.128 24.128 151.648 151.648c63.36 63.392 166.496 63.424 229.92 0l40.032-40c63.36-63.392 63.36-166.528 0-229.92l-214.88-214.88c-31.68-31.68-73.344-47.52-114.976-47.52zM288.032 21.472c-43.424 0-84.256 16.896-114.944 47.616l-40.032 40c-63.392 63.424-63.392 166.528 0 229.92l214.912 214.912c63.36 63.36 166.56 63.36 229.92 0l40.032-40.032-24.128-24.128-40.032 40.032c-50.080 50.080-131.584 50.080-181.664 0l-214.912-214.912c-50.048-50.048-50.048-131.552 0-181.664l40.032-40c24.256-24.256 56.512-37.632 90.816-37.632s66.56 13.376 90.816 37.632l143.008 143.008 24.128-24.128-143.008-143.008c-30.688-30.72-71.52-47.616-114.944-47.616z" />
<glyph unicode="&#xe966;" glyph-name="lintern" d="M273.152 959.808v-102.368l119.424-204.704v-716.512h238.848v716.512l119.424 204.704v102.368h-477.696zM307.264 925.664h409.44v-59.008l-5.376-9.216h-398.688l-5.376 9.216v59.008zM426.688-29.664v68.384h170.592v-68.384h-170.592zM601.952 669.92l-4.64-7.968v-589.12h-170.592v589.12l-94.144 161.376h358.848l-89.472-153.408zM512 482.112c-28.256 0-51.168-22.912-51.168-51.168v-68.32c0-28.256 22.912-51.168 51.168-51.168s51.168 22.944 51.168 51.168v68.32c0 28.256-22.912 51.168-51.168 51.168zM529.056 362.624c0-9.408-7.648-17.056-17.056-17.056s-17.056 7.648-17.056 17.056v68.32c0 9.408 7.648 17.056 17.056 17.056s17.056-7.648 17.056-17.056v-68.32z" />
<glyph unicode="&#xe967;" glyph-name="lock" d="M733.792 465.056v204.704c0 122.464-99.296 221.792-221.76 221.792-122.496 0-221.824-99.296-221.824-221.792v-204.736h-119.424v-460.608h682.4v460.608h-119.424zM324.352 669.792c0 103.488 84.192 187.648 187.68 187.648s187.616-84.192 187.616-187.648v-204.736h-375.328v204.736zM819.072 38.56h-614.144v392.384h614.144v-392.384z" />
<glyph unicode="&#xe968;" glyph-name="look" d="M512 755.072c-187.104 0-332.928-117.12-511.808-306.976 154.112-162.336 283.424-307.2 511.808-307.2s396.224 183.36 511.808 303.744c-118.304 141.024-286.176 310.4-511.808 310.4zM512 175.040c-202.752 0-325.12 125.728-464.768 273.024 166.144 173.248 298.24 272.864 464.768 272.864 197.152 0 351.2-142.176 465.856-274.912-112.736-117.568-265.376-271.008-465.856-271.008zM512 652.704c-112.896 0-204.736-91.84-204.736-204.704s91.84-204.704 204.736-204.704 204.736 91.84 204.736 204.704-91.84 204.704-204.736 204.704zM512 277.408c-94.048 0-170.592 76.512-170.592 170.592s76.544 170.592 170.592 170.592 170.592-76.512 170.592-170.592c0-94.048-76.544-170.592-170.592-170.592zM512 567.424c-65.856 0-119.424-53.568-119.424-119.424s53.568-119.424 119.424-119.424c65.856 0 119.424 53.568 119.424 119.424s-53.568 119.424-119.424 119.424zM512 362.688c-47.040 0-85.312 38.272-85.312 85.312s38.272 85.312 85.312 85.312 85.312-38.272 85.312-85.312c0-47.040-38.272-85.312-85.312-85.312z" />
<glyph unicode="&#xe969;" glyph-name="loop" d="M654.784 613.632l-296.48-294.272 24.096-24.192 296.48 294.272zM221.984 260.352c-103.488 0-187.648 84.192-187.648 187.648s84.192 187.648 187.648 187.648c50.112 0 95.584-19.872 129.28-51.968l0.032 0.192 1.728-1.504 66.432-66.112h-60.96v-34.112h119.424v119.424h-34.112v-61.376l-66.688 66.368-0.16-0.16c-40.032 39.168-94.688 63.424-154.944 63.424-122.272 0-221.792-99.488-221.792-221.792s99.488-221.792 221.792-221.792c63.072 0 119.904 26.592 160.352 68.992l-24.096 24.128c-34.24-36.224-82.592-59.008-136.256-59.008zM802.016 669.792c-56.48 0-107.936-21.376-147.104-56.288l24.096-24.096c32.96 28.736 75.936 46.272 123.008 46.272 103.488 0 187.648-84.192 187.648-187.648s-84.192-187.648-187.648-187.648c-49.92 0-95.232 19.712-128.896 51.616l-0.064-0.32-112.992 112.576-24.224-24.032 113.12-112.704 0.192 0.192c39.84-37.984 93.6-61.472 152.832-61.472 122.272 0 221.792 99.488 221.792 221.792s-99.488 221.792-221.792 221.792z" />
<glyph unicode="&#xe96a;" glyph-name="magic-wand" horiz-adv-x="832" d="M-0.224 56.448l445.312 445.312 24.128-24.128-445.312-445.312-24.128 24.128zM319.136 625.504h136.544v-34.144h-136.544v34.144zM694.624 625.504h136.544v-34.144h-136.544v34.144zM558.080 488.96h34.144v-136.544h-34.144v136.544zM558.080 864.416h34.144v-136.544h-34.144v136.544zM767.712 777.056l-96.544-96.544-24.128 24.128 96.544 96.544 24.128-24.128zM743.872 414.656l-96.544 96.544 24.128 24.128 96.544-96.544-24.128-24.128zM479.552 680.288l-96.544 96.544 24.128 24.128 96.544-96.544-24.128-24.128z" />
<glyph unicode="&#xe96b;" glyph-name="magnet" d="M683.040 874.496v-477.248c0-94.464-76.576-171.040-171.040-171.040-94.496 0-171.040 76.576-171.040 171.040v477.248h-204.288v-477.696c0-207.296 168.032-375.328 375.328-375.328s375.328 168.032 375.328 375.328v477.696h-204.288zM853.216 840.384v-102.368h-136.032v102.368h136.032zM306.848 840.384v-102.368h-136.032v102.368h136.032zM512 55.616c-188.16 0-341.184 153.056-341.184 341.184v307.072h136.032v-306.656c0-113.12 92.032-205.152 205.152-205.152s205.152 92.032 205.152 205.152v306.656h136.032v-307.072c0-188.16-153.088-341.216-341.216-341.216z" />
<glyph unicode="&#xe96c;" glyph-name="mail-open-file" d="M935.328 533.056l-371.040 371.040c-13.952 13.952-32.512 21.664-52.256 21.664s-38.304-7.68-52.256-21.664l-80.896-80.896h-122.72v-122.688l-170.624-170.592v-559.712h852.992v559.648l-3.168 3.168zM900 520.096l-132.128-132.128v264.224l132.128-132.128zM483.872 880c15.040 15.040 41.248 15.040 56.288 0l56.768-56.768h-169.824l56.768 56.768zM631.008 789.12l102.752-102.784v-332.48l-79.008-79.008-90.528 90.528c-13.952 13.952-32.512 21.664-52.256 21.664s-38.304-7.712-52.256-21.664l-91.872-91.84-77.632 77.632v437.92h340.768zM140.16 536.32l115.968 115.968v-266.976l-133.504 133.504 17.536 17.536zM119.616 446.144v27.392l224.096-224.096-2.528-2.56-0.032 0.032-221.536-221.536v420.768zM146.848 4.352l18.336 18.336h0.064l318.624 318.592c15.040 15.040 41.248 15.040 56.288 0l336.992-336.928h-730.304zM904.384 468.48v-443.136l-225.472 225.376 225.472 225.472v-7.744zM392.576 686.752h238.848v-34.112h-238.848v34.112zM392.576 482.016h238.848v-34.112h-238.848v34.112zM392.576 584.384h170.592v-34.112h-170.592v34.112z" />
<glyph unicode="&#xe96d;" glyph-name="mail-open" d="M935.328 533.056l-371.072 371.040c-13.952 13.952-32.512 21.664-52.256 21.664s-38.304-7.68-52.256-21.664l-374.24-374.176v-559.712h852.992v559.648l-3.168 3.168zM140.16 536.32l343.712 343.68c15.040 15.040 41.248 15.040 56.288 0l359.872-359.904-245.248-245.248-90.528 90.528c-13.952 13.952-32.512 21.664-52.256 21.664s-38.304-7.712-52.256-21.664l-91.872-91.84-245.248 245.248 17.536 17.536zM343.744 249.44l-2.528-2.56-0.032 0.032-221.536-221.536v448.16l224.128-224.096zM146.848 4.352l18.336 18.336h0.064l318.624 318.592c15.040 15.040 41.248 15.040 56.288 0l336.992-336.928h-730.304zM904.384 461.76v-436.416l-225.472 225.376 225.472 225.472v-14.432z" />
<glyph unicode="&#xe96e;" glyph-name="mail" d="M903.808 720.96h-818.304v-545.92h852.992v545.92h-34.688zM869.664 686.848l-329.536-329.536c-15.040-15.040-41.248-15.040-56.288 0l-329.6 329.536h715.392zM119.616 673.248l221.536-221.504-221.536-221.536v443.072zM146.848 209.152l218.464 218.432 94.432-94.4c13.952-13.952 32.512-21.664 52.256-21.664s38.304 7.712 52.256 21.664l94.432 94.432 218.432-218.432h-730.304zM904.384 230.176l-221.536 221.568 221.536 221.568v-443.136z" />
<glyph unicode="&#xe96f;" glyph-name="male" horiz-adv-x="832" d="M472.736 777.376l6.816-32.416 261.12 59.744-257.696-259.424c-51.2 46.080-117.76 73.376-192.864 73.376-160.416 0-290.144-129.696-290.144-290.144s129.696-290.144 290.144-290.144c160.416 0 290.144 129.696 290.144 290.144 0 73.376-27.296 141.664-73.376 192.864l259.424 259.424-61.44-261.12 32.416-8.544 81.92 346.464-346.464-80.224zM290.144 72.544c-141.664 0-256 114.336-256 256s114.336 256 256 256c141.664 0 256-114.336 256-256s-114.336-256-256-256z" />
<glyph unicode="&#xe970;" glyph-name="map-2" horiz-adv-x="800" d="M512 405.344l-102.4 58.016v208.224c58.016 8.544 102.4 58.016 102.4 117.76 0 66.56-52.896 119.456-119.456 119.456s-119.456-52.896-119.456-119.456c0-59.744 44.384-109.216 102.4-117.76v-187.744l-102.4 58.016-273.056-110.944v-418.144l273.056 110.944 238.944-136.544 273.056 136.544v418.144l-273.056-136.544zM238.944 145.92l-204.8-81.92v344.736l204.8 83.616v-346.464zM307.2 789.344c0 47.776 37.536 85.344 85.344 85.344s85.344-37.536 85.344-85.344c0-47.776-37.536-85.344-85.344-85.344s-85.344 37.536-85.344 85.344zM512 24.736l-238.944 136.544v341.344l102.4-58.016v-150.176h34.144v131.424l102.4-58.016v-343.040zM750.944 144.224l-204.8-102.4v341.344l204.8 102.4v-341.344z" />
<glyph unicode="&#xe971;" glyph-name="map-marker" d="M512.032 925.696c169.312 0 307.072-137.76 307.072-307.104 0-53.856-14.272-106.912-41.28-153.568l-265.824-460.608-265.856 460.64c-26.976 46.592-41.248 99.68-41.248 153.536 0 169.344 137.76 307.104 307.104 307.104zM512.032 499.2c65.856 0 119.392 53.568 119.392 119.392s-53.568 119.392-119.392 119.392c-65.856 0-119.424-53.568-119.424-119.392s53.568-119.392 119.424-119.392zM512.032 959.808c-188.448 0-341.216-152.8-341.216-341.216 0-62.24 16.736-120.384 45.824-170.624l295.36-511.808 295.36 511.808c29.088 50.24 45.824 108.384 45.824 170.624 0 188.416-152.768 341.216-341.184 341.216v0zM512.032 533.312c-47.104 0-85.312 38.176-85.312 85.28 0 47.072 38.208 85.28 85.312 85.28s85.28-38.208 85.28-85.28c0-47.104-38.176-85.28-85.28-85.28v0z" />
<glyph unicode="&#xe972;" glyph-name="map" d="M737.76 851.2l-21.024 10.528-17.056-8.512v-0.032l-187.648-93.824-204.736 102.368-221.792-110.88v-716.512l221.792 110.88 204.736-102.368 204.736 102.368 221.792-110.88v716.512l-200.768 100.384zM290.208 174.816l-170.592-85.312v640.224l170.592 85.312v-640.224zM494.944 89.504l-170.592 85.312v640.224l170.592-85.312v-640.224zM699.648 174.816l-170.592-85.312v640.224l170.592 85.312v-640.224zM904.384 89.504l-170.592 85.312v640.224l170.592-85.312v-640.224z" />
<glyph unicode="&#xe973;" glyph-name="medal" horiz-adv-x="608" d="M435.456 550.944c20.448 48.64 84.864 204.256 84.864 237.248v129.76h-436.384v-129.76c0-33.088 64-189.664 83.968-237.696-99.392-49.472-167.872-151.776-167.872-270.336 0-166.848 135.264-302.112 302.112-302.112s302.112 135.264 302.112 302.112c0 118.944-68.896 221.536-168.8 270.816zM117.472 788.224v96.192h167.264v-229.664h33.568v229.664h168.448v-96.192c0-18.4-41.184-126.72-82.208-224.128-32.032 11.552-66.4 18.176-102.4 18.176-36.352 0-71.072-6.752-103.36-18.528-34.88 83.968-81.28 204.256-81.28 224.48zM302.112 11.616c-148.064 0-268.544 120.48-268.544 268.544s120.48 268.544 268.544 268.544c148.064 0 268.544-120.48 268.544-268.544s-120.48-268.544-268.544-268.544zM302.112 481.568c-111.232 0-201.408-90.176-201.408-201.408s90.176-201.408 201.408-201.408c111.264 0 201.408 90.176 201.408 201.408s-90.144 201.408-201.408 201.408zM302.112 112.32c-92.544 0-167.84 75.296-167.84 167.84s75.296 167.84 167.84 167.84c92.576 0 167.84-75.296 167.84-167.84s-75.264-167.84-167.84-167.84z" />
<glyph unicode="&#xe974;" glyph-name="menu" d="M102.56 738.016v-136.48h818.88v136.48h-818.88zM887.328 635.648h-750.624v68.256h750.624v-68.256zM102.56 379.744h818.88v136.48h-818.88v-136.48zM136.672 482.112h750.624v-68.256h-750.624v68.256zM102.56 157.984h818.88v136.48h-818.88v-136.48zM136.672 260.352h750.624v-68.256h-750.624v68.256z" />
<glyph unicode="&#xe975;" glyph-name="micro" d="M512.096 243.936c103.392 0 187.232 83.808 187.232 187.232v340.448c0 103.392-83.84 187.2-187.232 187.2s-187.232-83.808-187.232-187.2v-340.448c0-103.392 83.84-187.232 187.232-187.232zM358.912 771.584c0 84.448 68.704 153.152 153.184 153.152s153.184-68.704 153.184-153.152v-340.448c0-84.48-68.704-153.184-153.184-153.184s-153.184 68.704-153.184 153.184v340.448zM767.296 601.376v-170.208c0-140.768-114.528-255.296-255.296-255.296s-255.296 114.528-255.296 255.296v170.208h-34.048v-170.208c0-154.56 121.92-280.832 274.592-288.576h-2.176v-171.328h-153.28v-34.048h340.384v34.048h-153.088v171.328h-2.336c152.672 7.776 274.592 134.048 274.592 288.576v170.208h-34.048z" />
<glyph unicode="&#xe976;" glyph-name="monitor" d="M955.552 226.208v614.144h-887.136v-614.144h426.496v-136.48h-119.424v-34.112h272.96v34.112h-119.424v136.48h426.496zM102.56 806.272h818.88v-545.92h-818.88v545.92z" />
<glyph unicode="&#xe977;" glyph-name="moon" d="M316.224 798.336c-27.104-54.944-41.44-115.648-41.44-178.048 0-223.264 181.632-404.896 404.896-404.896 65.664 0 129.12 15.648 185.984 45.184-68.8-123.808-199.936-203.84-347.584-203.84-219.712 0-398.432 178.72-398.432 398.432 0 143.712 77.088 273.056 196.576 343.168zM409.28 873.376c-186.144-48.288-323.776-216.96-323.776-418.208 0-238.88 193.696-432.544 432.576-432.544 204.384 0 375.232 141.92 420.448 332.448-66.784-65.248-158.048-105.536-258.816-105.536-204.768 0-370.784 166.016-370.784 370.784 0 97.952 38.272 186.816 100.384 253.088v0z" />
<glyph unicode="&#xe978;" glyph-name="more" d="M102.56 550.368c-56.544 0-102.368-45.824-102.368-102.368s45.824-102.368 102.368-102.368c56.512 0 102.368 45.824 102.368 102.368s-45.856 102.368-102.368 102.368zM102.56 379.744c-37.664 0-68.224 30.592-68.224 68.256s30.592 68.256 68.224 68.256c37.632 0 68.256-30.592 68.256-68.256s-30.624-68.256-68.224-68.256zM921.44 550.368c-56.544 0-102.368-45.824-102.368-102.368s45.824-102.368 102.368-102.368c56.512 0 102.368 45.824 102.368 102.368s-45.856 102.368-102.368 102.368zM921.44 379.744c-37.632 0-68.256 30.592-68.256 68.256s30.624 68.256 68.256 68.256c37.632 0 68.256-30.592 68.256-68.256s-30.624-68.256-68.256-68.256zM512 550.368c-56.544 0-102.368-45.824-102.368-102.368s45.824-102.368 102.368-102.368c56.512 0 102.368 45.824 102.368 102.368s-45.856 102.368-102.368 102.368zM512 379.744c-37.632 0-68.256 30.592-68.256 68.256s30.624 68.256 68.256 68.256c37.632 0 68.256-30.592 68.256-68.256s-30.624-68.256-68.256-68.256z" />
<glyph unicode="&#xe979;" glyph-name="mouse" d="M529.056 686.016v52.704c0 15.584 32.928 36.192 59.36 52.768 37.888 23.712 77.12 48.288 77.12 84.064v84.256h-34.112v-84.256c0-16.864-33.856-38.080-61.088-55.136-37.056-23.2-75.392-47.2-75.392-81.664v-52.704c-133.344-8.576-238.848-116.032-238.848-247.648v-253.664c0-137.216 114.56-248.48 255.904-248.48s255.904 111.264 255.904 248.48v253.664c0 131.648-105.504 239.104-238.848 247.648zM733.792 438.368v-24.48h-204.736v238.016c114.304-8.48 204.736-100.896 204.736-213.536zM290.208 438.368c0 112.64 90.4 205.056 204.736 213.536v-238.016h-204.736v24.48zM512-29.664c-122.272 0-221.792 96.16-221.792 214.368v195.072h443.552v-195.072c0-118.208-99.488-214.368-221.792-214.368z" />
</font>
</defs>
</svg>
